[ Сегодня идет свободное скачивание без начисления Download ]


Статистика раздачи
Нет
 
   
 
Top  
 
 
Алёнка из Почитанки
Год выпуска: 2014
Производство: АВК продакшн
Жанр: комедия
Продолжительность: 00:44:00
Субтитры: Нет
Режиссёр: Сергей Русаков
В ролях: Виктория Маслова, Алина Мулина, Николай Добрынин, Михаил Полицеймако, Евгения Дмитриева, Олег Акулич, Иван Оранский, Максим Сапрыкин (II), Игнатий Акрачков, Виктор Супрун, Мариэтта Цигаль-Полищук, Екатерина Копанова
Описание: Учительница из сибирского села Почитанка Алена Грибанова – умница и красавица. Она всегда отгадывает ответы на самые сложные вопросы в своей любимой телеигре «Остров сокровищ». Но знает об этом только ее дочка Дуняша.
И вдруг Алене приходит приглашение аж из самой Москвы – зовут стать участником новогодней программы! С этого момента жизнь деревенской учительницы меняется коренным образом…
-
Доп. информация: Реклама отсутствует!
-
Релиз группы::
-
Все раздачи сериала:
Сэмпл: https://cloud.mail.ru/public/6ba9cee60f04/%D0%90%D0...Rip.by.simka.avi
Качество: SATRip
Формат: AVI
Видео кодек: XviD
Аудио кодек: MP3
Видео: 720x400, 25 fps, XviD, ~1400 kbps, 0.229 bit/pixel
Аудио: 48 kHz, MPEG Layer 3, 2 ch, 192 kbps

MI

Общее
Полное имя : U:\Сериалы (2015)\Алёнка из Почитанки (2014)\Алёнка из Почитанки.(01.seriya).2014.XviD.SATRip.by.simka.avi
Формат : AVI
Формат/Информация : Audio Video Interleave
Размер файла : 507 Мбайт
Продолжительность : 43 м.
Общий поток : 1645 Кбит/сек
Программа кодирования : VirtualDubModRus 1.5.10.2 (build 2542/release)
Библиотека кодирования : VirtualDubMod build 2542/release
Видео
Идентификатор : 0
Формат : MPEG-4 Visual
Профиль формата : Advanced [email protected]
Параметр BVOP формата : 1
Параметр QPel формата : Нет
Параметр GMC формата : Без точки перехода
Параметр матрицы формата : Default (MPEG)
Идентификатор кодека : XVID
Идентификатор кодека/Подсказка : XviD
Продолжительность : 43 м.
Битрейт : 1444 Кбит/сек
Ширина : 720 пикселей
Высота : 400 пикселей
Соотношение сторон : 16:9
Частота кадров : 25,000 кадров/сек
Цветовое пространство : YUV
Субдискретизация насыщенности : 4:2:0
Битовая глубина : 8 бит
Тип развёртки : Прогрессивная
Метод сжатия : С потерями
Бит/(Пиксели*Кадры) : 0.201
Размер потока : 445 Мбайт (88%)
Библиотека кодирования : XviD 1.2.1 (UTC 2008-12-04)
Аудио
Идентификатор : 1
Формат : MPEG Audio
Версия формата : Version 1
Профиль формата : Layer 3
Режим : Joint stereo
Расширение режима : MS Stereo
Идентификатор кодека : 55
Идентификатор кодека/Подсказка : MP3
Продолжительность : 43 м.
Вид битрейта : Постоянный
Битрейт : 192 Кбит/сек
Каналы : 2 канала
Частота : 48,0 КГц
Метод сжатия : С потерями
Размер потока : 59,2 Мбайт (12%)
Выравнивание : Соединение по промежуткам
Продолжительность промежутка : 40 мс. (1,00 видеокадр)
Время предзагрузки промежутка : 504 мс.
Библиотека кодирования : LAME3.99r
Настройки программы : -m j -V 4 -q 2 -lowpass 18.6 -b 192
-------------

Внимание! Раздача ведётся путём добавления новых выпусков

При каждом добавлении создаётся новый торрент. Чтобы начать докачку нового выпуска, пользователям необходимо сделать следующее:
? остановить скачивание;
? удалить старый торрент у себя из клиента (старые выпуски удалять не надо);
? скачать новый торрент и запустить его у себя в клиенте вместо старого, при этом указать клиенту путь в старую папку куда и должно происходить скачивание новых выпусков;
? ваш клиент при запуске должен произвести хеширование (проверку) старой папки (если не производит сам - помогите ему сделать это), и будет докачивать только те выпуски, которых у вас ещё нет. Старые выпуски при этом не удаляются, а продолжают раздаваться!, Конец фильма!, Продолжения в понедельник если не доберется ПО http://inter.ua/ru/cinema/films/muzh_na_chas_2014 http://6.firepic.org/6/images/2014-07/30/9f572qp4ljwf.jpg
? Eсли вы уже удалили старые выпуски, то предотвратить повторную закачку старых выпусков можно, отжав галочку в соответсвующих местах при запуске нового торрента.внимания в 4-й серии отсутствует около 7 минут из за погодних условий завтра с повтора надеюсь записать и будет замена!!! Концовка есть думаю не поттера ети 7 мин
Добавлена 4-я серия!

[Цитировать]



Показать сообщения:    

Текущее время: 06-Дек 05:59

Часовой пояс: UTC + 3


Вы не можете начинать темы
Вы не можете отвечать на сообщения
Вы не можете редактировать свои сообщения
Вы не можете удалять свои сообщения
Вы не можете голосовать в опросах
Вы не можете прикреплять файлы к сообщениям
Вы не можете скачивать файлы

!ВНИМАНИЕ!
Сайт не предоставляет электронные версии произведений, а занимается лишь коллекционированием и каталогизацией ссылок, присылаемых и публикуемых на форуме нашими читателями. Если вы являетесь правообладателем какого-либо представленного материала и не желаете, чтобы ссылка на него находилась в нашем каталоге, свяжитесь с нами, и мы незамедлительно удалим ее. Файлы для обмена на трекере предоставлены пользователями сайта, и администрация не несет ответственности за их содержание. Просьба не заливать файлы, защищенные авторскими правами, а также файлы нелегального содержания!