[ Сегодня идет свободное скачивание без начисления Download ]


Статистика раздачи
Нет
 
   
 
Top  
 
 
Мент в законе - 9
Год выпуска: 2014
Производство: Россия, ООО «Центр Кинопроизводства»
Жанр: Криминал
Продолжительность: 00:45:00
Субтитры: нет
Режиссёр:Юрий Попович, Игорь Ромащенко, Давид Ройтберг
В ролях: Сергей Плотников (II), Михаил Бабичев, Антон Сёмкин, Сергей Пиотровский, Ирина Темичева, Ника Балина, Павел Савчук, Иван Литвинов, Василий Мичков, Андрей Рогожин, Дмитрий Косенкин, Дмитрий Артаев, Игорь Серебряный, Юлия Яблонская, Константин Глушков, Дмитрий Блохин, Иван Соловьёв, Дмитрий Варшавский, Александр Сухинин, Станислав Эвентов, Мария Портнова, Михаил Филиппов, Евгений Булдаков, Александра Панкратова, Александра Булычёва, Владимир Чуприков, Анастасия Дубровина, Эльмира Мирэль, Семён Литвинов, Иван Иванов, Денис Дружинин, Федор Румянцев, Марина Барсукова, Никита Тезов
Описание: Несмотря на все старания Степана Кручи и его верных боевых товарищей преступность в Битово не хочет уступать свои позиции. Покой Степану только снится. Подполковнику предстоит столкнуться с доселе невиданными в "его районе" преступлениями и старыми заклятыми врагами. В Битовском районе переполох - все местные газеты и телевиденье кричат о благородном разбойнике, Робин Гуде местного разлива. "Герой" специализируется на убийстве и грабеже бизнесменов, чьи имена запятнаны грязными делишками. Похищенные у бизнесменов деньги и ценности он раздает на благотворительные нужды. Но Степан Круча повидал уже многое, чтобы поверить в эту сказку. Стараниями Кручи "благородный разбойник" показывает свое истинное лицо: его благородные цели - лишь прикрытие. Предстоит подполковнику свести счеты и с бандой автомошенников, перешедших последнюю черту закона - убито несколько владельцев машин. Да и заклятый враг Кручи - Сафон тоже не сидит сложа руки. Вызволив сына из тюрьмы, Сафон помогает Егору открыть свой бизнес. Только бизнес этот они ведут не по законам рынка, а по бандитским понятиям. Но на каждую силу находится еще большая сила и новоявленный бизнесмен напрямую столкнется с "акулами" этого рынка, захватившими ключевые позиции еще в 90-х. Тем самым он подставит под удар не только себя, но и отца. Дел у Кручи и его команды оперативников много - одной жизни не хватит, чтобы все их разгрести. Рвение Степана вызывает насмешки окружающих и скепсис Ольги. Но Круча докажет, что это не личные счеты к Сафрону, не попытка отыграться за погибшую любимую женщину и не идея фикс, а самая настоящая борьба с преступностью.
Все раздачи сериала:

Качество: WEBRip
Формат: AVI
Видео кодек: XviD
Аудио кодек: MP3
Видео: XviD 720x400, ~ 1800 kbps, 25.00fps, 0.25 bit/pixel
Аудио: MP3, 2 канала, 48,0 КГц, ~128 kbps
Сторонняя реклама ЕСТЬ!

MI

ОбщееПолное имя                       : F:\Ment.v.zakone.9.WEBRip\Ment.v.zakone.9.01.WEBRip.aviФормат                           : AVIФормат/Информация                : Audio Video InterleaveРазмер файла                     : 644 МбайтПродолжительность                : 46 м.Общий поток                      : 1935 Кбит/секБиблиотека кодирования           : VirtualDub build 35491/release
ВидеоИдентификатор : 0Формат : MPEG-4 VisualПрофиль формата : Advanced [email protected] BVOP формата : 2Параметр QPel формата : НетПараметр GMC формата : Без точки переходаПараметр матрицы формата : Default (H.263)Режим смешивания : Сжатый битовый потокИдентификатор кодека : XVIDИдентификатор кодека/Подсказка : XviDПродолжительность : 46 м.Битрейт : 1797 Кбит/секШирина : 720 пикс.Высота : 400 пикс.Соотношение сторон : 16:9Частота кадров : 25,000 кадр/секЦветовое пространство : YUVПодвыборка цветности : 4:2:0Битовая глубина : 8 битТип развёртки : ПрогрессивнаяМетод сжатия : С потерямиБит/(Пиксели*Кадры) : 0.250Размер потока : 598 Мбайт (93%)Библиотека кодирования : XviD 73
АудиоИдентификатор : 1Формат : MPEG AudioВерсия формата : Version 1Профиль формата : Layer 3Режим : Joint stereoРасширение режима : MS StereoИдентификатор кодека : 55Идентификатор кодека/Подсказка : MP3Продолжительность : 46 м.Вид битрейта : ПостоянныйБитрейт : 128 Кбит/секКаналы : 2 каналаЧастота : 48,0 КГцМетод сжатия : С потерямиЗадержка видео : 100 мс.Размер потока : 42,6 Мбайт (7%)Выравнивание : Разделение по промежуткамПродолжительность промежутка : 40 мс. (1,00 видеокадр)Время предзагрузки промежутка : 500 ms
Раздача группы:
Отдельное спасибо Kn1GhT за предоставление материала.

Внимание ! Раздача ведётся путём добавления новых серий

Внимание! Раздача ведётся путём добавления новых серий; при каждом добавлении создётся новый торрент. Чтобы начать докачку новой серии, пользователям необходимо сделать следующее:
(1) остановить скачивание,
(2) удалить старый торрент у себя из клиента (старые серии удалять не надо),
(3) скачать новый торрент и запустить его у себя в клиенте вместо старого, при этом указать клиенту путь в старую папку куда и должно происходить скачивание новых серий.
Ваш клиент при этом должен произвести хеширование (проверку) старой папки (если не производит сам - помогите ему сделать это), и будет докачивать только те серии которых у вас ещё нет. Старые серии при этом не удаляются, а продолжают раздаваться!
Eсли вы уже удалили старые серии, то предотвратить повторную закачку старых серий можно, отжав галочку в соответсвующих местах при запуске нового торрента. По возможности, желательно не удалять старые серии как можно дольше чтобы релизёр не столько продолжал раздавать старые серии, а смог сконцентрироваться на новых.
ВНИМАНИЕ! ТОРРЕНТ ПЕРЕЗАЛИТ! ДОБАВЛЕНА 2-ая СЕРИИ!

Скриншоты

[Цитировать]



Показать сообщения:    

Текущее время: 05-Дек 19:40

Часовой пояс: UTC + 3


Вы не можете начинать темы
Вы не можете отвечать на сообщения
Вы не можете редактировать свои сообщения
Вы не можете удалять свои сообщения
Вы не можете голосовать в опросах
Вы не можете прикреплять файлы к сообщениям
Вы не можете скачивать файлы

!ВНИМАНИЕ!
Сайт не предоставляет электронные версии произведений, а занимается лишь коллекционированием и каталогизацией ссылок, присылаемых и публикуемых на форуме нашими читателями. Если вы являетесь правообладателем какого-либо представленного материала и не желаете, чтобы ссылка на него находилась в нашем каталоге, свяжитесь с нами, и мы незамедлительно удалим ее. Файлы для обмена на трекере предоставлены пользователями сайта, и администрация не несет ответственности за их содержание. Просьба не заливать файлы, защищенные авторскими правами, а также файлы нелегального содержания!