[ Сегодня идет свободное скачивание без начисления Download ]


Статистика раздачи
Нет
 
   
 
Top  
 
 
Чужой
Год выпуска: 2014
Производство: © Форвард-Фильм
Жанр: Боевик
Продолжительность: ~00:45:00
Субтитры: нет
Режиссёр: Георгий Даниелянц, Вадим Саетгалиев, Петр Забелин
В ролях: Сергей Горобченко, Дмитрий Паламарчук, Кира Кауфман, Сергей Кошонин, Сергей Колос, Денис Горин, Наталья Андреева, Валентин Захаров (II), Валерия Сухачева, Мария Зимина (II), Анна Донченко, Ирина Гершт, Мария Шустрова, Александр Михайлов-Уральский, Владислав Петрушин, Роман Притула, Юрий Ковалёв, Кристина Оленникова, Мария Русских, Андрей Вергелис, Дмитрий Кузеняткин, Николай Колосов, Эрнест Тимерханов, Анна Енжаева
Описание: Главный герой сериала, Михаил Аристов, после развода принимает решение вернуться на родину из Австралии, где работал рейнджером в национальном парке. Он абсолютно не представляет себе реалий жизни в современной России. Он привык к обществу равных перед законом людей, к полиции, которая это равенство защищает, к наказанию преступников, невзирая на персоналии. В результате случайного уличного конфликта на Аристова возбуждают уголовное дело. Единственный, кто может ему помочь – начальник уголовного розыска одного из районов полковник Водяной, отчим старого школьного друга. В качестве ответной услуги, Водяной предлагает Аристову поработать в качестве его агента, став водителем салона элитного «эскорта». Он должен среди девушек, работающих в салоне, вычислить проститутку, связанную с преступниками, совершившим налет на особняк олигарха Акулина. Аристов и не представляет, к каким глобальным изменениям в его жизни, к каким драматическим событиям приведет его эта просьба.
Все раздачи сериала:

Качество: DVB-AVC
Формат: TS
Видео кодек: AVC
Аудио кодек: MP2
Видео: MPEG2 Video 1024х576 @ 720x576 (16:9) 25.00fps ~2537 Kbps (0.245 bit/pixel)
Аудио: MPEG Audio 48000Hz 2 channels 192 Кбит/сек
Сторонней рекламы нет!
Записано с канала НТВ

MediaInfo

ОбщееИдентификатор                    : 1 (0x1)Полное имя                       : F:\Chuzoj.2014.DVB.Files-x\01.Chuzoj.2014.DVB.Files-x.tsФормат                           : MPEG-TSРазмер файла                     : 949 МбайтПродолжительность                : 46 м.Общий поток                      : 2873 Кбит/сек
ВидеоИдентификатор : 69 (0x45)Идентификатор меню : 1 (0x1)Формат : AVCФормат/Информация : Advanced Video CodecПрофиль формата : High@L4.1Параметр CABAC формата : ДаПараметр ReFrames формата : 3 кадраИдентификатор кодека : 27Продолжительность : 46 м.Битрейт : 2537 Кбит/секШирина : 720 пикс.Высота : 576 пикс.Соотношение сторон : 16:9Частота кадров : 25,000 кадр/секСтандарт вещания : PALЦветовое пространство : YUVПодвыборка цветности : 4:2:0Битовая глубина : 8 битТип развёртки : ПрогрессивнаяБит/(Пиксели*Кадры) : 0.245Размер потока : 838 Мбайт (88%)
АудиоИдентификатор : 68 (0x44)Идентификатор меню : 1 (0x1)Формат : MPEG AudioВерсия формата : Version 1Профиль формата : Layer 2Идентификатор кодека : 3Продолжительность : 46 м.Вид битрейта : ПостоянныйБитрейт : 192 Кбит/секКаналы : 2 каналаЧастота : 48,0 КГцМетод сжатия : С потерямиРазмер потока : 63,4 Мбайт (7%)Язык : English
Запись и монтаж:
Оформление:
Раздача группы:

Внимание ! Раздача ведётся путём добавления новых серий

Внимание! Раздача ведётся путём добавления новых серий; при каждом добавлении создётся новый торрент. Чтобы начать докачку новой серии, пользователям необходимо сделать следующее:
(1) остановить скачивание,
(2) удалить старый торрент у себя из клиента (старые серии удалять не надо),
(3) скачать новый торрент и запустить его у себя в клиенте вместо старого, при этом указать клиенту путь в старую папку куда и должно происходить скачивание новых серий.
Ваш клиент при этом должен произвести хеширование (проверку) старой папки (если не производит сам - помогите ему сделать это), и будет докачивать только те серии которых у вас ещё нет. Старые серии при этом не удаляются, а продолжают раздаваться!
Eсли вы уже удалили старые серии, то предотвратить повторную закачку старых серий можно, отжав галочку в соответсвующих местах при запуске нового торрента. По возможности, желательно не удалять старые серии как можно дольше чтобы релизёр не столько продолжал раздавать старые серии, а смог сконцентрироваться на новых.
ВНИМАНИЕ! ТОРРЕНТ ПЕРЕЗАЛИТ! ДОБАВЛЕНА 21-ая - 24-ая СЕРИИ!

Скриншоты

[Цитировать]



Показать сообщения:    

Текущее время: 07-Дек 17:28

Часовой пояс: UTC + 3


Вы не можете начинать темы
Вы не можете отвечать на сообщения
Вы не можете редактировать свои сообщения
Вы не можете удалять свои сообщения
Вы не можете голосовать в опросах
Вы не можете прикреплять файлы к сообщениям
Вы не можете скачивать файлы

!ВНИМАНИЕ!
Сайт не предоставляет электронные версии произведений, а занимается лишь коллекционированием и каталогизацией ссылок, присылаемых и публикуемых на форуме нашими читателями. Если вы являетесь правообладателем какого-либо представленного материала и не желаете, чтобы ссылка на него находилась в нашем каталоге, свяжитесь с нами, и мы незамедлительно удалим ее. Файлы для обмена на трекере предоставлены пользователями сайта, и администрация не несет ответственности за их содержание. Просьба не заливать файлы, защищенные авторскими правами, а также файлы нелегального содержания!