[ Сегодня идет свободное скачивание без начисления Download ]


Статистика раздачи
Нет
 
   
 
Top  
 
 
Сердце звезды
Год выпуска: 2014
Производство: Студия "Гармония"
Жанр: Мелодрама
Продолжительность: 00:45:00
Субтитры: нет
Режиссёр: Сергей Борчуков, Сахат Дурсунов, Эдуард Пальмов
В ролях: Лилия Лаврова, Ирина Ефремова, Наталия Медведева, Александр Волков, Валерий Афанасьев, Александр Клюквин, Ираида Краснопольская, Максим Фролов, Ярослав Гарнаев, Александр Зачиняев, Виталий Герасимов, Мария Денисова, Василий Брыков, Артем Кузнецов, Данила Аболихин, Артур Псакин, Фёдор Рощин, Юлия Сорокина, Григорий Середа, Анатолий Завьялов, Игорь Шаройко, Иван Дементьев, Елена Коллегова
Описание: Погибает популярная певица Александра Гринева, более известная под сценическим псевдонимом Сашка. Жизнь 35-летней певицы была полна событий, и даже ее смерть произвела фурор. Многие не верят в саму возможность смерти Гриневой. Однако трагическая гибель певицы никак не может быть несчастным случаем, уж слишком много народу тем или иным образом были заинтересованы в ее смерти начиная с ее бывшего мужа и заканчивая отцом девушки, которой пересадили сердце Александры.
Сэмпл
Качество: HDTV 1080i
Формат: TS
Видео кодек: H.264
Аудио кодек: MP2
Видео: 1920х1080 (16:9), 25 fps, AVC MPEG-4 (x264), [email protected] ~ 7771 kbps avg, 0.150 bit/pixel
Аудио: 48 kHz, MP2, 2 ch, 256 kbps avg
Релиз: nikolspup
Раздача группы:

MI

Общее
Идентификатор : 1 (0x1)
Полное имя : I:\Serdtse.zvezdy.serii.1_10.2014.HDTV.(1080i).MediaClub\Serdtse.zvezdy.(001.seriya).2014.HDTV.(1080i).MediaClub.ts
Формат : MPEG-TS
Размер файла : 2,57 Гбайт
Продолжительность : 43 м.
Режим общего битрейта : Переменный
Общий поток : 8447 Кбит/сек
Максимальный общий битрейт : 35,5 Мбит/сек
Видео
Идентификатор : 4113 (0x1011)
Идентификатор меню : 1 (0x1)
Формат : AVC
Формат/Информация : Advanced Video Codec
Профиль формата : [email protected]
Параметр CABAC формата : Да
Параметр ReFrames формата : 4 кадра
Идентификатор кодека : 27
Продолжительность : 43 м.
Вид битрейта : Переменный
Битрейт : 7771 Кбит/сек
Максимальный битрейт : 40,0 Мбит/сек
Ширина : 1920 пикселей
Высота : 1080 пикселей
Соотношение сторон : 16:9
Частота кадров : 25,000 кадров/сек
Цветовое пространство : YUV
Субдискретизация насыщенности : 4:2:0
Битовая глубина : 8 бит
Тип развёртки : MBAFF
Бит/(Пиксели*Кадры) : 0.150
Размер потока : 2,37 Гбайт (92%)
Аудио
Идентификатор : 4352 (0x1100)
Идентификатор меню : 1 (0x1)
Формат : MPEG Audio
Версия формата : Version 1
Профиль формата : Layer 2
Идентификатор кодека : 4
Продолжительность : 43 м.
Вид битрейта : Постоянный
Битрейт : 256 Кбит/сек
Каналы : 2 канала
Частота : 48,0 КГц
Метод сжатия : С потерями
Размер потока : 79,9 Мбайт (3%)
Язык : Russian

Скриншоты

[Цитировать]



Показать сообщения:    

Текущее время: 06-Дек 03:53

Часовой пояс: UTC + 3


Вы не можете начинать темы
Вы не можете отвечать на сообщения
Вы не можете редактировать свои сообщения
Вы не можете удалять свои сообщения
Вы не можете голосовать в опросах
Вы не можете прикреплять файлы к сообщениям
Вы не можете скачивать файлы

!ВНИМАНИЕ!
Сайт не предоставляет электронные версии произведений, а занимается лишь коллекционированием и каталогизацией ссылок, присылаемых и публикуемых на форуме нашими читателями. Если вы являетесь правообладателем какого-либо представленного материала и не желаете, чтобы ссылка на него находилась в нашем каталоге, свяжитесь с нами, и мы незамедлительно удалим ее. Файлы для обмена на трекере предоставлены пользователями сайта, и администрация не несет ответственности за их содержание. Просьба не заливать файлы, защищенные авторскими правами, а также файлы нелегального содержания!