[ Сегодня идет свободное скачивание без начисления Download ]


Статистика раздачи
Нет
 
   
 
Top  
 
 
Бирюк
Год выпуска: 2014
Производство: Триикс Медиа
Жанр: Криминальный фильм
Продолжительность: ~00:45:00
Субтитры: нет
Режиссёр: Игорь Драка
В ролях: Игорь Черневич, Алексей Нилов, Алиса Золоткова, Борис Бедросов, Денис Старков, Артём Алексеев, Виталий Куклин, Вера Тран, Надежда Дмитриева, Олег Дроздов, Роман Жилкин
Описание: Олег Бирюков по кличке "Бирюк" — бывший опер убойного отдела, майор в отставке. Десять лет назад он ушел из милиции, так как при задержании преступника погибла заложница, и Бирюк посчитал себя виновным в ее смерти.
Однажды Олег получил страшную весть от своей первой жены Юли: был убит их сын Максим. С супругой они разошлись больше 20 лет назад, когда мальчику было восемь. Сейчас у Бирюка другая семья, но Максим так и остался его единственным родным ребенком. Он пошел по стопам отца и стал полицейским. В день гибели у Максима был выходной, который он решил провести с женой Катей и сынишкой Мишей. Прогуливаясь по городу, они стали свидетелями разбойного налета на инкассаторов. Безоружный Максим вступил в схватку с бандитами. На глазах Кати главарь банды — Серый — безжалостно добил тяжелораненого Максима, а бандиты с добычей скрылись с места преступления.
Катя обратилась к Бирюку с просьбой найти бандитов. Она не готова ждать, когда их найдет полиция, ведь никакой суд ее не устроит. Катя хочет своими глазами увидеть смерть убийцы мужа. Все для себя решил и Бирюк: он возьмет в руки оружие и отомстит за сына…
Все раздачи сериала:

Качество: WEBRip-AVC
Формат: MKV
Видео кодек: H.264
Аудио кодек: AC-3
Видео: MPEG4 Video (H264) 1024x576, ~ 2000 kbps, 25.00fps, 0.136 bit/pixel
Аудио: AC-3, 2 канала, 48,0 КГц, ~192 kbps, VBR
Сторонней рекламы нет!

MediaInfo

ОбщееУникальный идентификатор         : 229859543126961561525908060723189746412 (0xACED56743CB72597B2CB5F351DE98AEC)Полное имя                       : F:\Biriuk.2014.WEB-DLRip.(AVC).ExKinoRay\Biriuk.(01.seriya).2014.WEB-DLRip.(AVC).ExKinoRay.mkvФормат                           : MatroskaРазмер файла                     : 691 МбайтПродолжительность                : 44 м.Общий поток                      : 2191 Кбит/секНазвание фильма                  : Biriuk.(01.seriya).2014.WEB-DLRip.(AVC).ExKinoRayДата кодирования                 : UTC 2014-12-26 23:42:39Программа кодирования            : mkvmerge v5.8.0 ('No Sleep / Pillow') built on Sep  2 2012 15:37:04Библиотека кодирования           : libebml v1.2.3 + libmatroska v1.3.0
ВидеоИдентификатор : 1Формат : AVCФормат/Информация : Advanced Video CodecПрофиль формата : [email protected] CABAC формата : ДаПараметр ReFrames формата : 2 кадраИдентификатор кодека : V_MPEG4/ISO/AVCПродолжительность : 44 м.Вид битрейта : ПостоянныйБитрейт : 2000 Кбит/секШирина : 1024 пикс.Высота : 576 пикс.Соотношение сторон : 16:9Частота кадров : 25,000 кадр/секЦветовое пространство : YUVПодвыборка цветности : 4:2:0Битовая глубина : 8 битТип развёртки : ПрогрессивнаяБит/(Пиксели*Кадры) : 0.136Размер потока : 617 Мбайт (89%)Язык : Russian
АудиоИдентификатор : 2Формат : AC-3Формат/Информация : Audio Coding 3Расширение режима : CM (complete main)Идентификатор кодека : A_AC3Продолжительность : 44 м.Вид битрейта : ПостоянныйБитрейт : 192 Кбит/секКаналы : 2 каналаРасположение каналов : Front: L RЧастота : 48,0 КГцБитовая глубина : 16 битМетод сжатия : С потерямиРазмер потока : 60,5 Мбайт (9%)Язык : Russian
Раздача группы:
Отдельное спасибо valera76 за предоставление материала.
Отдельная громадная благодарность Media-Art-Club за созданный постер к раздаче.

Внимание ! Раздача ведётся путём добавления новых серий

Внимание! Раздача ведётся путём добавления новых серий; при каждом добавлении создётся новый торрент. Чтобы начать докачку новой серии, пользователям необходимо сделать следующее:
(1) остановить скачивание,
(2) удалить старый торрент у себя из клиента (старые серии удалять не надо),
(3) скачать новый торрент и запустить его у себя в клиенте вместо старого, при этом указать клиенту путь в старую папку куда и должно происходить скачивание новых серий.
Ваш клиент при этом должен произвести хеширование (проверку) старой папки (если не производит сам - помогите ему сделать это), и будет докачивать только те серии которых у вас ещё нет. Старые серии при этом не удаляются, а продолжают раздаваться!
Eсли вы уже удалили старые серии, то предотвратить повторную закачку старых серий можно, отжав галочку в соответсвующих местах при запуске нового торрента. По возможности, желательно не удалять старые серии как можно дольше чтобы релизёр не столько продолжал раздавать старые серии, а смог сконцентрироваться на новых.
ВНИМАНИЕ! ТОРРЕНТ ПЕРЕЗАЛИТ! ДОБАВЛЕНА 2-ая - 4-ая СЕРИИ!

Скриншоты

[Цитировать]



Показать сообщения:    

Текущее время: 05-Дек 19:42

Часовой пояс: UTC + 3


Вы не можете начинать темы
Вы не можете отвечать на сообщения
Вы не можете редактировать свои сообщения
Вы не можете удалять свои сообщения
Вы не можете голосовать в опросах
Вы не можете прикреплять файлы к сообщениям
Вы не можете скачивать файлы

!ВНИМАНИЕ!
Сайт не предоставляет электронные версии произведений, а занимается лишь коллекционированием и каталогизацией ссылок, присылаемых и публикуемых на форуме нашими читателями. Если вы являетесь правообладателем какого-либо представленного материала и не желаете, чтобы ссылка на него находилась в нашем каталоге, свяжитесь с нами, и мы незамедлительно удалим ее. Файлы для обмена на трекере предоставлены пользователями сайта, и администрация не несет ответственности за их содержание. Просьба не заливать файлы, защищенные авторскими правами, а также файлы нелегального содержания!