[ Сегодня идет свободное скачивание без начисления Download ]


Статистика раздачи
Нет
 
   
 
Top  
 
 
Ленинград 46
Год выпуска: 2015
Производство: Кинокомпания Триикс Медиа
Жанр: Драма
Продолжительность: ~0:45:00 серия
Субтитры: нет
Режиссёр: Игорь Копылов
В ролях: Сергей Гармаш, Евгений Миллер, Анна Табанина, Алексей Горбунов, Александр Лыков, Андрей Мерзликин, Даниил Страхов, Дмитрий Ульянов, Елена Коренева, Александра Богданова (IV), Эдуард Флёров, Петр Зайченко, Роман Курцын, Кирилл Полухин, Евгений Леонов-Гладышев, Татьяна Ткач, Александр Аравушкин, Дмитрий Сутырин, Михаил Касапов, Дмитрий Паламарчук, Анатолий Горин, Владимир Богданов, Елизавета Кутузова, Владимир Матвеев, Андрей Шарков, Дмитрий Лебедев, Михаил Горский, Александр Петров (III), Игорь Павлов, Игорь Филиппов, Вячеслав Аркунов, Елена Карпова, Виктор Чупров, Ольга Павловец, Владислав Резник, Даниил Кокин, Евгения Любимова-Ананичева, Елизавета Нилова, Андрей Некрасов (III), Алёна Кучкова, Александр Иванов (V), Сергей Амосов, Михаил Елисеев, Яков Шамшин, Роман Агеев, Кирилл Ульянов, Андрей Астраханцев, Денис Зайцев, Ольга Гагарина, Геннадий Свирь, Евгений Бакалов, Николай Горшков, Дмитрий Мурашев, Александр Иванов (VIII), Марк Гаврилов, Сергей Сафронов, Георгий Поздняков, Юлия Нижельская, Михаил Хмуров
Описание: История о мужестве, драма человеческих судеб, впервые открывающая многие страницы жизни послевоенного Ленинграда — суровой и подчас жестокой. Город, только что переживший блокаду и еще не оправившийся от голода, разрушений, смертей. Здесь милиция ведет свою неравную войну с преступностью, накрывшей Ленинград после войны…
После фронта, плена, штрафбата и госпиталя в Ленинград возвращается бывший преподаватель русского языка и литературы Игорь Данилов. В поезде он знакомится с командировочным Тарасовым. Случайно столкнув Данилова и Тарасова в вагоне поезда, жизнь будет сводить их не раз и не два…
Потеряв все – семью, работу, жилье — бывший преподаватель Данилов оказывается по другую сторону закона. Пытаясь добиться справедливости и отомстить тем, кто исковеркал его жизнь, он все больше погружается в криминальный мир послевоенного Ленинграда, постепенно превращаясь в одного из самых хитрых и опасных преступников.

Качество: SATRip
Формат: AVI
Видео кодек: XviD
Аудио кодек: АС-3
Видео: 720x400 (1.80:1), 25 fps, XviD build 50 ~1479 kbps avg, 0.205 bit/pixel
Аудио: 48 kHz, AC3 Dolby Digital, 2/0 (L,R) ch, ~192.00 kbps avg
Сторонней рекламы нет!

MediaInfo

GeneralComplete name : D:\Vytas\Video\Leningrad.46.2015..SATRip.Files-x\01.Leningrad.46.2015..SATRip.Files-x.aviFormat : AVIFormat/Info : Audio Video InterleaveFile size : 552 MiBDuration : 45mn 55sOverall bit rate : 1 680 KbpsWriting application : VirtualDubMod 1.5.10.2 (build 2542/release)Writing library : VirtualDubMod build 2542/release
VideoID : 0Format : MPEG-4 VisualFormat profile : Advanced Simple@L5Format settings, BVOP : 1Format settings, QPel : NoFormat settings, GMC : No warppointsFormat settings, Matrix : CustomCodec ID : XVIDCodec ID/Hint : XviDDuration : 45mn 55sBit rate : 1 479 KbpsWidth : 720 pixelsHeight : 400 pixelsDisplay aspect ratio : 16:9Frame rate : 25.000 fpsColor space : YUVChroma subsampling : 4:2:0Bit depth : 8 bitsScan type : ProgressiveCompression mode : LossyBits/(Pixel*Frame) : 0.205Stream size : 486 MiB (88%)Writing library : XviD 73
AudioID : 1Format : AC-3Format/Info : Audio Coding 3Mode extension : CM (complete main)Format settings, Endianness : BigCodec ID : 2000Duration : 45mn 55sBit rate mode : ConstantBit rate : 192 KbpsChannel(s) : 2 channelsChannel positions : Front: L RSampling rate : 48.0 KHzBit depth : 16 bitsCompression mode : LossyStream size : 63.1 MiB (11%)Alignment : Split accross interleavesInterleave, duration : 40 ms (1.00 video frame)Interleave, preload duratio : 500 ms

Внимание ! Раздача ведётся путём добавления новых серий

Внимание! Раздача ведётся путём добавления новых серий; при каждом добавлении создётся новый торрент. Чтобы начать докачку новой серии, пользователям необходимо сделать следующее:
(1) остановить скачивание,
(2) удалить старый торрент у себя из клиента (старые серии удалять не надо),
(3) скачать новый торрент и запустить его у себя в клиенте вместо старого, при этом указать клиенту путь в старую папку куда и должно происходить скачивание новых серий.
Ваш клиент при этом должен произвести хеширование (проверку) старой папки (если не производит сам - помогите ему сделать это), и будет докачивать только те серии которых у вас ещё нет. Старые серии при этом не удаляются, а продолжают раздаваться!
Eсли вы уже удалили старые серии, то предотвратить повторную закачку старых серий можно, отжав галочку в соответсвующих местах при запуске нового торрента. По возможности, желательно не удалять старые серии как можно дольше чтобы релизёр не столько продолжал раздавать старые серии, а смог сконцентрироваться на новых.

Скриншоты

[Цитировать]



Показать сообщения:    

Текущее время: 09-Дек 14:41

Часовой пояс: UTC + 3


Вы не можете начинать темы
Вы не можете отвечать на сообщения
Вы не можете редактировать свои сообщения
Вы не можете удалять свои сообщения
Вы не можете голосовать в опросах
Вы не можете прикреплять файлы к сообщениям
Вы не можете скачивать файлы

!ВНИМАНИЕ!
Сайт не предоставляет электронные версии произведений, а занимается лишь коллекционированием и каталогизацией ссылок, присылаемых и публикуемых на форуме нашими читателями. Если вы являетесь правообладателем какого-либо представленного материала и не желаете, чтобы ссылка на него находилась в нашем каталоге, свяжитесь с нами, и мы незамедлительно удалим ее. Файлы для обмена на трекере предоставлены пользователями сайта, и администрация не несет ответственности за их содержание. Просьба не заливать файлы, защищенные авторскими правами, а также файлы нелегального содержания!