[ Today is free to download without increasing Download ]

DL-List and Torrent activity
Дорожный роман / Chikku Bukku
Страна: Индия
Жанр: Мелодрама
Год выпуска: 2010
Продолжительность: 02:19:20
Перевод: Профессиональный (многоголосый закадровый) SDI Media по заказу Red Media
Cубтитры: нет
Режиссер: Маникандан / Manikandan
В ролях: Арья, Шрия Саран, Притика Рао, Сантханам, Ануп Кумар, Хитаншу Арора, Монобала, Вайяпури, Равичандран, Джаган Аян, Панду, Раджа Пуревал
Описание: Диск-жокей Арджун живет в Лондоне. Там же в университете учится Ану. Однажды им приходится поехать в Индию по своим делам, и они знакомятся в поезде... (Радин К.Г.)
Доп. информация: Релиз: Кинозал.ТВ
Сведение звука: oktober (Спасибо!)
Сэмпл: http://multi-up.com/1024714
Качество видео: DVDRip
Формат видео: AVI
Видео: XviD build 50, 608x272 (2.24:1), 29.970 fps, 1194 kbps avg
Аудио: AC3 Dolby Digital, 48 kHz, 2/0 (L,R) ch, 192 kbps


Complete name : F:\Dorozhniy.Roman.2010.XviD.DVDRip.Oktober.avi
Format : AVI
Format/Info : Audio Video Interleave
File size : 1.36 GiB
Duration : 2h 19mn
Overall bit rate : 1 398 Kbps
Writing application : VirtualDubMod (build 2540/release)
Writing library : VirtualDubMod build 2540/release
ID : 0
Format : MPEG-4 Visual
Format profile : AdvancedSimple@L5
Format settings, BVOP : Yes
Format settings, QPel : No
Format settings, GMC : No warppoints
Format settings, Matrix : Default (H.263)
Codec ID : XVID
Codec ID/Hint : XviD
Duration : 2h 19mn
Bit rate : 1 195 Kbps
Width : 608 pixels
Height : 272 pixels
Display aspect ratio : 2.25
Frame rate : 29.970 fps
Resolution : 24 bits
Colorimetry : 4:2:0
Scan type : Progressive
Bits/(Pixel*Frame) : 0.241
Stream size : 1.16 GiB (85%)
Writing library : XviD 1.2.1 (UTC 2008-12-04)
ID : 1
Format : AC-3
Format/Info : Audio Coding 3
Codec ID : 2000
Duration : 2h 19mn
Bit rate mode : Constant
Bit rate : 192 Kbps
Channel(s) : 2 channels
Channel positions : L R
Sampling rate : 48.0 KHz
Stream size : 191 MiB (14%)
Alignment : Split accross interleaves
Interleave, duration : 33 ms (1.00 video frame)
Interleave, preload duration : 500 ms



Display posts:    

Current time is: 22-Oct 22:42

All times are UTC + 3

You cannot post new topics in this forum
You cannot reply to topics in this forum
You cannot edit your posts in this forum
You cannot delete your posts in this forum
You cannot vote in polls in this forum
You cannot attach files in this forum
You cannot download files in this forum

The site does not give electronic versions of products, and is engaged only in a collecting and cataloguing of the references sent and published at a forum by our readers. If you are the legal owner of any submitted material and do not wish that the reference to it was in our catalogue, contact us and we shall immediately remove her. Files for an exchange on tracker are given by users of a site, and the administration does not bear the responsibility for their maintenance. The request to not fill in the files protected by copyrights, and also files of the illegal maintenance!