[ Today is free to download without increasing Download ]

DL-List and Torrent activity
88 / 88
Страна: Канада
Жанр: Триллер, боевик
Год выпуска: 2015
Продолжительность: 01:28:35
Перевод: Любительский (двухголосый закадровый) МЕГАПЫХАРЬ и Элис по субтитрам (МЕГАПЫХАРЬ и Ворон)
Cубтитры: нет
Оригинальная аудиодорожка: нет
Режиссер: Эйприл Маллен / April Mullen
В ролях: Кэтрин Изабель, Кристофер Ллойд, Кайл Шмид, Джесси МакКартни, Майкл Айронсайд, Тим Дойрон,Эйприл Маллен,Энтони Юлк, Мики Мун, Алан С. Петерсон
Описание: Молодая девушка приходит в себя в придорожной закусочной, не имея ни малейшего понятия, кто она и как там оказалась. Не успев в этом разобраться, она оказывается в самой гуще непонятных для неё событий. И она вынуждена , пробиваясь сквозь пули и кровь, по крупицам восстанавливать свою память...

Сэмпл: http://sendfile.su/1074842
Качество видео: HDRip
Формат видео: AVI
Видео: 640x272 (2.35:1), 23.976 fps, XviD build 50 ~964 kbps avg, 0.231 bit/pixel
Аудио: 48 kHz, AC3 Dolby Digital, 2/0 (L,R) ch, ~192 kbps


Complete name : C:\Documents and Settings\Admin.MICROSOF-C69A97\Рабочий стол\88.2015.HDRip.XViD\88.2015.avi
Format : AVI
Format/Info : Audio Video Interleave
File size : 738 MiB
Duration : 1h 28mn
Overall bit rate : 1 165 Kbps
Writing application : VirtualDubMod (build 2540/release)
Writing library : VirtualDubMod build 2540/release
ID : 0
Format : MPEG-4 Visual
Format profile : Advanced Simple@L5
Format settings, BVOP : 2
Format settings, QPel : No
Format settings, GMC : No warppoints
Format settings, Matrix : Default (H.263)
Muxing mode : Packed bitstream
Codec ID : XVID
Codec ID/Hint : XviD
Duration : 1h 28mn
Bit rate : 964 Kbps
Width : 640 pixels
Height : 272 pixels
Display aspect ratio : 2.35:1
Frame rate : 23.976 fps
Color space : YUV
Chroma subsampling : 4:2:0
Bit depth : 8 bits
Scan type : Progressive
Compression mode : Lossy
Bits/(Pixel*Frame) : 0.231
Stream size : 611 MiB (83%)
Writing library : XviD 64
ID : 1
Format : AC-3
Format/Info : Audio Coding 3
Mode extension : CM (complete main)
Format settings, Endianness : Big
Codec ID : 2000
Duration : 1h 28mn
Bit rate mode : Constant
Bit rate : 192 Kbps
Channel(s) : 2 channels
Channel positions : Front: L R
Sampling rate : 48.0 KHz
Bit depth : 16 bits
Compression mode : Lossy
Stream size : 122 MiB (16%)
Alignment : Split accross interleaves
Interleave, duration : 42 ms (1.00 video frame)
Interleave, preload duration : 500 ms

Скриншот c названием фильма




Топик был перенесен из форума Новинки кинопроката в форум Триллер

Display posts:    

Current time is: 22-Oct 16:28

All times are UTC + 3

You cannot post new topics in this forum
You cannot reply to topics in this forum
You cannot edit your posts in this forum
You cannot delete your posts in this forum
You cannot vote in polls in this forum
You cannot attach files in this forum
You cannot download files in this forum

The site does not give electronic versions of products, and is engaged only in a collecting and cataloguing of the references sent and published at a forum by our readers. If you are the legal owner of any submitted material and do not wish that the reference to it was in our catalogue, contact us and we shall immediately remove her. Files for an exchange on tracker are given by users of a site, and the administration does not bear the responsibility for their maintenance. The request to not fill in the files protected by copyrights, and also files of the illegal maintenance!