[ Сегодня идет свободное скачивание без начисления Download ]


Статистика раздачи
Нет
 
   
 
Top  
 
 
88 / 88
Страна: Канада
Жанр: Триллер, боевик
Год выпуска: 2015
Продолжительность: 01:28:35
Перевод: Любительский (двухголосый закадровый) МЕГАПЫХАРЬ и Элис по субтитрам (МЕГАПЫХАРЬ и Ворон)
Cубтитры: нет
Оригинальная аудиодорожка: нет
Режиссер: Эйприл Маллен / April Mullen
В ролях: Кэтрин Изабель, Кристофер Ллойд, Кайл Шмид, Джесси МакКартни, Майкл Айронсайд, Тим Дойрон,Эйприл Маллен,Энтони Юлк, Мики Мун, Алан С. Петерсон
Описание: Молодая девушка приходит в себя в придорожной закусочной, не имея ни малейшего понятия, кто она и как там оказалась. Не успев в этом разобраться, она оказывается в самой гуще непонятных для неё событий. И она вынуждена , пробиваясь сквозь пули и кровь, по крупицам восстанавливать свою память...

Сэмпл: http://sendfile.su/1074842
Качество видео: HDRip
Формат видео: AVI
Видео: 640x272 (2.35:1), 23.976 fps, XviD build 50 ~964 kbps avg, 0.231 bit/pixel
Аудио: 48 kHz, AC3 Dolby Digital, 2/0 (L,R) ch, ~192 kbps

MediaInfo

General
Complete name : C:\Documents and Settings\Admin.MICROSOF-C69A97\Рабочий стол\88.2015.HDRip.XViD\88.2015.avi
Format : AVI
Format/Info : Audio Video Interleave
File size : 738 MiB
Duration : 1h 28mn
Overall bit rate : 1 165 Kbps
Writing application : VirtualDubMod 1.5.10.2 (build 2540/release)
Writing library : VirtualDubMod build 2540/release
Video
ID : 0
Format : MPEG-4 Visual
Format profile : Advanced Simple@L5
Format settings, BVOP : 2
Format settings, QPel : No
Format settings, GMC : No warppoints
Format settings, Matrix : Default (H.263)
Muxing mode : Packed bitstream
Codec ID : XVID
Codec ID/Hint : XviD
Duration : 1h 28mn
Bit rate : 964 Kbps
Width : 640 pixels
Height : 272 pixels
Display aspect ratio : 2.35:1
Frame rate : 23.976 fps
Color space : YUV
Chroma subsampling : 4:2:0
Bit depth : 8 bits
Scan type : Progressive
Compression mode : Lossy
Bits/(Pixel*Frame) : 0.231
Stream size : 611 MiB (83%)
Writing library : XviD 64
Audio
ID : 1
Format : AC-3
Format/Info : Audio Coding 3
Mode extension : CM (complete main)
Format settings, Endianness : Big
Codec ID : 2000
Duration : 1h 28mn
Bit rate mode : Constant
Bit rate : 192 Kbps
Channel(s) : 2 channels
Channel positions : Front: L R
Sampling rate : 48.0 KHz
Bit depth : 16 bits
Compression mode : Lossy
Stream size : 122 MiB (16%)
Alignment : Split accross interleaves
Interleave, duration : 42 ms (1.00 video frame)
Interleave, preload duration : 500 ms

Скриншот c названием фильма

Скриншоты

:

[Цитировать]

Топик был перенесен из форума Новинки кинопроката в форум Триллер
Henkok



Показать сообщения:    

Текущее время: 11-Дек 12:53

Часовой пояс: UTC + 3


Вы не можете начинать темы
Вы не можете отвечать на сообщения
Вы не можете редактировать свои сообщения
Вы не можете удалять свои сообщения
Вы не можете голосовать в опросах
Вы не можете прикреплять файлы к сообщениям
Вы не можете скачивать файлы

!ВНИМАНИЕ!
Сайт не предоставляет электронные версии произведений, а занимается лишь коллекционированием и каталогизацией ссылок, присылаемых и публикуемых на форуме нашими читателями. Если вы являетесь правообладателем какого-либо представленного материала и не желаете, чтобы ссылка на него находилась в нашем каталоге, свяжитесь с нами, и мы незамедлительно удалим ее. Файлы для обмена на трекере предоставлены пользователями сайта, и администрация не несет ответственности за их содержание. Просьба не заливать файлы, защищенные авторскими правами, а также файлы нелегального содержания!