[ Сегодня идет свободное скачивание без начисления Download ]


Статистика раздачи
Нет
 
   
 
Top  
 
 
Шальная карта / Wild Card- Год выпуска: 2015
Выпущено: США / Lionsgate, Cinema Seven Productions
Жанр: боевик, триллер, драма, криминал
Продолжительность: 01:32:20
Перевод: Любительский (многоголосый закадровый) |Студия "Paradox"|
Cубтитры: Русские (Notabenoid), Английские (внешние .srt*)
Оригинальная аудиодорожка: Английская-Режиссер:
Саймон Уэст / Simon West-В ролях:
Джейсон Стэйтем (Nick Wild), Майкл Ангарано (Cyrus Kinnick), Майло Вентимилья (Danny DeMarco), Доминик Гарсиа-Лоридо (Holly), Энн Хеч (Roxy), София Вергара (DD), Макс Казелла (Osgood), Джейсон Александр (Pinky), Хоуп Дэвис (Cassandra), Стэнли Туччи (Baby)-Описание:
Главный герой — бывший военный Ник Эскаланте — работает в Лас-Вегасе охранником, мечтает накопить денег и навсегда уехать в Венецию. Но Ник соглашается помочь проститутке Холли, постоянно подвергающейся насилию со стороны сына крупного гангстера, из-за чего отъезд в Венецию затягивается.-Релиз групп | | IMDB | КиноПоиск | Сэмпл |-Качество: BDRip [BDRemux | 1080p | Кинозал]
Формат: AVI
Видео: 720x304 (2.37:1), 23.976 fps, XviD build 73 ~1897 kbps avg, 0.36 bit/pixel
Аудио #1: 48 kHz, AC3 Dolby Digital, 3/2 (L,C,R,l,r) + LFE ch, ~384.00 kbps avg (RUS)
Аудио #2: 48 kHz, AC3 Dolby Digital, 3/2 (L,C,R,l,r) + LFE ch, ~384.00 kbps avg (ENG) отдельно
-

Скриншоты

MediaInfo

General
Complete name                            : D:\Shalnaya_karta_2015_BDRip_MVO_by_Dalemake.avi
Format                                   : AVI
Format/Info                              : Audio Video Interleave
File size                                : 1.48 GiB
Duration                                 : 1h 32mn
Overall bit rate                         : 2 290 Kbps
Writing application                      : VirtualDubMod 1.5.10.3 | www.virtualdub-fr.org || (build 2550/release)
Writing library                          : VirtualDubMod build 2550/release
Video
ID                                       : 0
Format                                   : MPEG-4 Visual
Format profile                           : Advanced Simple@L5
Format settings, BVOP                    : 1
Format settings, QPel                    : No
Format settings, GMC                     : No warppoints
Format settings, Matrix                  : Custom
Codec ID                                 : XVID
Codec ID/Hint                            : XviD
Duration                                 : 1h 32mn
Bit rate                                 : 1 897 Kbps
Width                                    : 720 pixels
Height                                   : 304 pixels
Display aspect ratio                     : 2.35:1
Frame rate                               : 23.976 fps
Color space                              : YUV
Chroma subsampling                       : 4:2:0
Bit depth                                : 8 bits
Scan type                                : Progressive
Compression mode                         : Lossy
Bits/(Pixel*Frame)                       : 0.362
Stream size                              : 1.22 GiB (83%)
Writing library                          : XviD 73
Audio
ID                                       : 1
Format                                   : AC-3
Format/Info                              : Audio Coding 3
Mode extension                           : CM (complete main)
Format settings, Endianness              : Big
Codec ID                                 : 2000
Duration                                 : 1h 32mn
Bit rate mode                            : Constant
Bit rate                                 : 384 Kbps
Channel(s)                               : 6 channels
Channel positions                        : Front: L C R, Side: L R, LFE
Sampling rate                            : 48.0 KHz
Bit depth                                : 16 bits
Compression mode                         : Lossy
Stream size                              : 254 MiB (17%)
Alignment                                : Split accross interleaves
Interleave, duration                     : 42 ms (1.00 video frame)
Interleave, preload duration             : 500 ms
-

[Цитировать]

Топик был перенесен из форума Новинки кинопроката в форум Боевик
Henkok



Показать сообщения:    

Текущее время: 10-Дек 15:52

Часовой пояс: UTC + 3


Вы не можете начинать темы
Вы не можете отвечать на сообщения
Вы не можете редактировать свои сообщения
Вы не можете удалять свои сообщения
Вы не можете голосовать в опросах
Вы не можете прикреплять файлы к сообщениям
Вы не можете скачивать файлы

!ВНИМАНИЕ!
Сайт не предоставляет электронные версии произведений, а занимается лишь коллекционированием и каталогизацией ссылок, присылаемых и публикуемых на форуме нашими читателями. Если вы являетесь правообладателем какого-либо представленного материала и не желаете, чтобы ссылка на него находилась в нашем каталоге, свяжитесь с нами, и мы незамедлительно удалим ее. Файлы для обмена на трекере предоставлены пользователями сайта, и администрация не несет ответственности за их содержание. Просьба не заливать файлы, защищенные авторскими правами, а также файлы нелегального содержания!