[ Сегодня идет свободное скачивание без начисления Download ]


Статистика раздачи
Нет
 
   
 
 
 
Царь скорпионов 4: Утерянный трон / The Scorpion King: The Lost Throne
Страна: США
Жанр: Приключения, боевик
Год выпуска: 2015
Продолжительность:01:44:51
Перевод: Профессиональный (полное дублирование) [iTunes]
Оригинальная аудиодорожка: нет
Cубтитры: нет
Режиссер: Майк Эллиот / Mike Elliott
В ролях: Ройс Грейси, Эсме Бьянко, Майкл Бин, Бэрри Боствик, Стивен Данливи, Грант Эллиотт, Лу Ферриньо, Ли Гилл, Роджер Халстон, Брэндон Хардест
Описание: В очередной киноленте о «Царе скорпионов» мы увидим как отстранённый от своего трона король-воин Метайюс принимает решение отправиться на самое страшное и ужасное задание своей жизни. Все это Метайюс решает сделать ради того, чтобы на его земле снова воцарился мир. Все вроде бы шло своим чередом, но однажды от Метайюса отворачивается его самый близкий и лучший друг, такого он никак не мог предвидеть. Теперь герой самолично должен противостоять страшному злодею, который готов на все только бы убить его. Сможет ли Метайюс, приложив все свои силы, противостоять своему противнику?! И добьётся ли наш герой того, ради чего он отважился на эту битву, наступит ли умиротворение на его земле?!

Качество: HDRip
Контейнер: AVI
Видео: 720x400 (1.80:1), 23.976 fps, XviD build 73 ~1592 kbps avg, 0.23 bit/pixel
Аудио: 48 kHz, AC3 Dolby Digital, 3/2 (L,C,R,l,r) + LFE ch, ~384 kbps

MI

Общее
Полное имя : C:\Users\Пользователь\Downloads\Царь скорпионов_HDRip.avi
Формат : AVI
Формат/Информация : Audio Video Interleave
Размер файла : 1,45 Гбайт
Продолжительность : 1 ч. 44 м.
Общий поток : 1986 Кбит/сек
Программа кодирования : VirtualDubMod 1.5.10.3 | www.virtualdub-fr.org || (build 2550/release)
Библиотека кодирования : VirtualDubMod build 2550/release
Видео
Идентификатор : 0
Формат : MPEG-4 Visual
Профиль формата : Advanced [email protected]
Параметр BVOP формата : 1
Параметр QPel формата : Нет
Параметр GMC формата : Без точки перехода
Параметр матрицы формата : Выборочная
Идентификатор кодека : XVID
Идентификатор кодека/Подсказка : XviD
Продолжительность : 1 ч. 44 м.
Битрейт : 1593 Кбит/сек
Ширина : 720 пикселей
Высота : 400 пикселей
Соотношение сторон : 16:9
Частота кадров : 23,976 кадра/сек
Цветовое пространство : YUV
Субдискретизация насыщенности : 4:2:0
Битовая глубина : 8 бит
Тип развёртки : Прогрессивная
Метод сжатия : С потерями
Бит/(Пиксели*Кадры) : 0.231
Размер потока : 1,17 Гбайт (80%)
Библиотека кодирования : XviD 73
Аудио
Идентификатор : 1
Формат : AC-3
Формат/Информация : Audio Coding 3
Расширение режима : CM (complete main)
Параметр Endianness формата : Big
Идентификатор кодека : 2000
Продолжительность : 1 ч. 44 м.
Вид битрейта : Постоянный
Битрейт : 384 Кбит/сек
Каналы : 6 каналов
Расположение каналов : Front: L C R, Side: L R, LFE
Частота : 48,0 КГц
Битовая глубина : 16 бит
Метод сжатия : С потерями
Размер потока : 288 Мбайт (19%)
Выравнивание : Разделение по промежуткам
Продолжительность промежутка : 42 мс. (1,00 видеокадр)
Время предзагрузки промежутка : 500 мс.

Скриншоты

[Цитировать]

Топик был перенесен из форума Новинки кинопроката в форум Мистика
Henkok



Показать сообщения:    

Текущее время: 04-Дек 09:12

Часовой пояс: UTC + 3


Вы не можете начинать темы
Вы не можете отвечать на сообщения
Вы не можете редактировать свои сообщения
Вы не можете удалять свои сообщения
Вы не можете голосовать в опросах
Вы не можете прикреплять файлы к сообщениям
Вы не можете скачивать файлы

!ВНИМАНИЕ!
Сайт не предоставляет электронные версии произведений, а занимается лишь коллекционированием и каталогизацией ссылок, присылаемых и публикуемых на форуме нашими читателями. Если вы являетесь правообладателем какого-либо представленного материала и не желаете, чтобы ссылка на него находилась в нашем каталоге, свяжитесь с нами, и мы незамедлительно удалим ее. Файлы для обмена на трекере предоставлены пользователями сайта, и администрация не несет ответственности за их содержание. Просьба не заливать файлы, защищенные авторскими правами, а также файлы нелегального содержания!