[ Сегодня идет свободное скачивание без начисления Download ]


Статистика раздачи
Нет
 
   
 
Top  
 
 
Сердце дракона 3: Заклятие друида / Dragonheart 3: The sorcerer's curse
Страна: США
Жанр: фэнтези
Год выпуска: 2015
Продолжительность: 01:37:05
Перевод: Субтитры (М.Васильев)
Cубтитры: русские, английские
Оригинальная аудиодорожка: английский
Режиссер: Колин Тиг / Colin Teague
В ролях: Джулиан Моррис, Тамзин Мерчант, Джонджо О'Нил, Джасса Ахлувалиа, Бен Кингсли
Описание: В условной, мифологической Британии идет война между рыцарями, охраняющими южные земли и кельтскими племенами с севера. Их разделяет знаменитый Адрианов Вал. Когда на землю падает звезда, юный и отважный воин Гарет решает отправиться на ее поиски. Ведь согласно легендам, там, куда упала звезда, хранятся несметные сокровища. Он перелезает через стену и оказывается в таинственном северном лесу, населенном колдунами, девами-воительницами и драконами...
Доп. информация: Фильм заявлен как часть франшизы "Сердце дракона", но в отличие от предыдущих частей (фильмы 1996 и 2000 годов), имевших общую сюжетную линию, рассказывает самостоятельную историю.
Данная раздача создана в ознакомительных целях и ориентирована на любителей смотреть фильмы с оригинальным звуком (по имеющимся данным, следует ожидать выхода картины в наших краях по лицензии)
Сэмпл
Релиз группа

Качество видео: DVDRip
Формат видео: AVI
Видео: 1741 Kbps, 720x400 (16:9), 23 976 fps, MPEG 4 XviD
Аудио: 256 Kbps, 48.0 KHz, 16 bits, 2 ch, AC 3
Формат субтитров: softsub (SRT)

MediaInfo

General
Complete name : C:\Users\Владелец\Desktop\ЗаклятиеДруида.avi
Format : AVI
Format/Info : Audio Video Interleave
File size : 1.36 GiB
Duration : 1h 37mn
Overall bit rate : 2 004 Kbps
Video
ID : 0
Format : MPEG-4 Visual
Format profile : Advanced Simple@L5
Format settings, BVOP : 2
Format settings, QPel : No
Format settings, GMC : No warppoints
Format settings, Matrix : Default (H.263)
Codec ID : XVID
Codec ID/Hint : XviD
Duration : 1h 37mn
Bit rate : 1 741 Kbps
Width : 720 pixels
Height : 400 pixels
Display aspect ratio : 16:9
Frame rate : 23.976 fps
Color space : YUV
Chroma subsampling : 4:2:0
Bit depth : 8 bits
Scan type : Progressive
Compression mode : Lossy
Bits/(Pixel*Frame) : 0.252
Stream size : 1.18 GiB (87%)
Writing library : XviD 64
Audio
ID : 1
Format : AC-3
Format/Info : Audio Coding 3
Mode extension : CM (complete main)
Format settings, Endianness : Big
Codec ID : 2000
Duration : 1h 37mn
Bit rate mode : Constant
Bit rate : 256 Kbps
Channel(s) : 2 channels
Channel positions : Front: L R
Sampling rate : 48.0 KHz
Bit depth : 16 bits
Compression mode : Lossy
Stream size : 178 MiB (13%)
Alignment : Aligned on interleaves
Interleave, duration : 64 ms (1.53 video frames)
Interleave, preload duration : 192 ms
Title : ac3

Скриншот c названием фильма

Скриншоты





Титры

1
00:00:52,519 --> 00:00:53,919
Столетия назад
2
00:00:53,921 --> 00:00:56,655
Римляне завоевали Британию,
3
00:00:56,657 --> 00:00:59,625
но им не удалось покорить
племена на севере острова.
4
00:01:01,027 --> 00:01:02,995
Тогда император Адриан
5
00:01:02,997 --> 00:01:05,197
воздвиг огромную стену,
6
00:01:05,199 --> 00:01:08,600
чтобы защитить свою землю
от набегов с севера.
7
00:01:10,603 --> 00:01:12,938
Рим давно пал,
8
00:01:12,940 --> 00:01:15,874
а стена все стоит.
9
00:01:15,876 --> 00:01:18,577
Рыцари юга живут
в постоянном страхе
10
00:01:18,579 --> 00:01:20,446
перед таинственным севером,
11
00:01:20,448 --> 00:01:24,883
где одни племена,
возглавляемые мудрыми друидами,
12
00:01:24,885 --> 00:01:27,686
хотят жить в мире,
13
00:01:27,688 --> 00:01:29,922
а другие мечтают
14
00:01:29,924 --> 00:01:32,124
снести стену
и начать войну.
15
00:01:47,474 --> 00:01:50,109
"Языки пламени донесут
16
00:01:50,111 --> 00:01:53,278
до звезд наши голоса.
17
00:01:53,280 --> 00:01:56,315
Духи хранят эту землю,
18
00:01:56,317 --> 00:01:59,184
пока мы храним
заветы предков.
19
00:02:09,562 --> 00:02:10,896
О, небо!
20
00:02:10,898 --> 00:02:15,134
Друиды всех племен
собрались здесь, чтобы познать твои тайны
21
00:02:15,136 --> 00:02:16,969
и увидеть будущее.
22
00:02:37,357 --> 00:02:39,024
Падающая звезда
23
00:02:40,693 --> 00:02:42,828
из созвездия Дракона.
24
00:02:42,830 --> 00:02:44,070
Это знак
25
00:02:45,198 --> 00:02:47,599
взять оружие,
разрушить стену

[Цитировать]

Топик был перенесен из форума Новинки кинопроката в форум Фэнтези
Henkok



Показать сообщения:    

Текущее время: 08-Дек 23:10

Часовой пояс: UTC + 3


Вы не можете начинать темы
Вы не можете отвечать на сообщения
Вы не можете редактировать свои сообщения
Вы не можете удалять свои сообщения
Вы не можете голосовать в опросах
Вы не можете прикреплять файлы к сообщениям
Вы не можете скачивать файлы

!ВНИМАНИЕ!
Сайт не предоставляет электронные версии произведений, а занимается лишь коллекционированием и каталогизацией ссылок, присылаемых и публикуемых на форуме нашими читателями. Если вы являетесь правообладателем какого-либо представленного материала и не желаете, чтобы ссылка на него находилась в нашем каталоге, свяжитесь с нами, и мы незамедлительно удалим ее. Файлы для обмена на трекере предоставлены пользователями сайта, и администрация не несет ответственности за их содержание. Просьба не заливать файлы, защищенные авторскими правами, а также файлы нелегального содержания!