[ Сегодня идет свободное скачивание без начисления Download ]


Статистика раздачи
Нет
 
   
 
Top  
 
 
В путь / Loaded
Страна: США
Жанр: мелодрама, комедия
Год выпуска: 2015
Продолжительность: 01:30:33
Перевод: Одноголосый закадровый ()
Cубтитры: нет
Режиссер: Крис Зоннас / Chris Zonnas
В ролях: Эндрю Уокер, Патрик Джон Флюгер, Кумал Нанджани, Александра Холден, Бобби Шафер
Описание: Когда-то Алекс, Итан и Рез были лучшими друзьями, но жизнь развела их в разные стороны. Прошло много лет и неожиданно им приходится снова встретиться. Когда выясняется, что Алекс стал алкоголиком, старые друзья решают ему помочь и отвезти на лечение в элитную наркологическую клинику. Загрузив не очень вменяемого Алекса в машину, они отправляются в путь... Естественно, все, что только может во время поездки пойти не так, пойдет именно не так.
Доп. информация: По форме фильм сделан на стыке «бади-муви» и «роуд-муви» (фильмы о мужской дружбе и путешествиях на авто). В ироничном ключе в фильме затрагиваются такие темы как «инфантилизация современной молодежи» и «кризис американской мечты».
Перевод: М.Васильев
Озвучка: Andi
Релиз-группа

IMDB
Сэмпл
Качество видео: DVDRip
Формат видео: AVI
Видео: 940 Kbps, 640x352 (16:9), 23 976 fps, MPEG 4XviD
Аудио: 192 Kbps, 48.0 KHz, 16 bits, 2 ch, AC 3

MediaInfo

General
Complete name : C:\Users\master\Desktop\в путь\vputi.avi
Format : AVI
Format/Info : Audio Video Interleave
File size : 739 MiB
Duration : 1h 30mn
Overall bit rate : 1 142 Kbps
Writing application : VirtualDubMod 1.5.10.2 (build 2540/release)
Writing library : VirtualDubMod build 2540/release
Video
ID : 0
Format : MPEG-4 Visual
Format profile : Advanced Simple@L5
Format settings, BVOP : 2
Format settings, QPel : No
Format settings, GMC : No warppoints
Format settings, Matrix : Default (H.263)
Codec ID : XVID
Codec ID/Hint : XviD
Duration : 1h 30mn
Bit rate : 940 Kbps
Width : 640 pixels
Height : 352 pixels
Display aspect ratio : 16:9
Frame rate : 23.976 fps
Color space : YUV
Chroma subsampling : 4:2:0
Bit depth : 8 bits
Scan type : Progressive
Compression mode : Lossy
Bits/(Pixel*Frame) : 0.174
Stream size : 609 MiB (82%)
Writing library : XviD 64
Audio
ID : 1
Format : AC-3
Format/Info : Audio Coding 3
Mode extension : CM (complete main)
Format settings, Endianness : Big
Codec ID : 2000
Duration : 1h 30mn
Bit rate mode : Constant
Bit rate : 192 Kbps
Channel(s) : 2 channels
Channel positions : Front: L R
Sampling rate : 48.0 KHz
Bit depth : 16 bits
Compression mode : Lossy
Stream size : 124 MiB (17%)
Alignment : Split accross interleaves
Interleave, duration : 42 ms (1.00 video frame)
Interleave, preload duration : 500 ms

Скриншот c названием фильма

Скриншоты







[Цитировать]

Топик был перенесен из форума Новинки кинопроката в форум Мелодрама
Henkok



Показать сообщения:    

Текущее время: 10-Дек 15:39

Часовой пояс: UTC + 3


Вы не можете начинать темы
Вы не можете отвечать на сообщения
Вы не можете редактировать свои сообщения
Вы не можете удалять свои сообщения
Вы не можете голосовать в опросах
Вы не можете прикреплять файлы к сообщениям
Вы не можете скачивать файлы

!ВНИМАНИЕ!
Сайт не предоставляет электронные версии произведений, а занимается лишь коллекционированием и каталогизацией ссылок, присылаемых и публикуемых на форуме нашими читателями. Если вы являетесь правообладателем какого-либо представленного материала и не желаете, чтобы ссылка на него находилась в нашем каталоге, свяжитесь с нами, и мы незамедлительно удалим ее. Файлы для обмена на трекере предоставлены пользователями сайта, и администрация не несет ответственности за их содержание. Просьба не заливать файлы, защищенные авторскими правами, а также файлы нелегального содержания!