[ Сегодня идет свободное скачивание без начисления Download ]


Статистика раздачи
Нет
 
   
 
Top  
 
 
Поклонник / The Boy Next Door
Страна: США
Жанр: триллер
Год выпуска: 2015
Продолжительность: 01:29:54
Перевод: Профессиональный (дублированный) [Line]
Cубтитры: китайские (вшитые неотключаемые)
Режиссер: Роб Коэн / Rob Cohen
В ролях: Дженнифер Лопез, Райан Гузман, Йен Нельсон, Джон Корбетт, Кристин Ченоуэт, Лекси Аткинс, Хилл Харпер, Джек Уоллес, Адам Хикс, Франсуа Чау
Описание: Отношения разведенной женщины и ее соседа-подростка заходят слишком далеко…
Дата мировой премьеры: 22 января 2015
Дата российской премьеры: 26 марта 2015 «UPI»
Дата выхода DVD/Blu-ray релиза: 28 мая 2015 «Двадцатый Век Фокс СНГ»
Бюджет: $4 000 000
Сборы в США: $35 423 380
Сборы в России: $568 058
Сборы в мире: + $11 100 000 = $46 523 380

Качество видео: WEBRip
Формат видео: AVI
Видео: XviD, 720x304, 2.35:1, 23.976 fps, 1 915 Kbps
Аудио: AC3, 48.0 KHz, 256 Kbps, 2 ch

MediaInfo

C:\Users\Desktop\Poklonnik.2015.D.WEBRip.1400MB.avi
General
Complete name : C:\Users\Арсен\Desktop\Poklonnik.2015.D.WEBRip.1400MB.avi
Format : AVI
Format/Info : Audio Video Interleave
File size : 1.37 GiB
Duration : 1h 29mn
Overall bit rate : 2 180 Kbps
Writing application : VirtualDubMod 1.5.10.3 | www.virtualdub-fr.org || (build 2550/release)
Writing library : VirtualDubMod build 2550/release
Video #0
ID : 0
Format : MPEG-4 Visual
Format profile : Advanced Simple@L5
Format settings, BVOP : 2
Format settings, QPel : No
Format settings, GMC : No warppoints
Format settings, Matrix : Default (MPEG)
Muxing mode : Packed bitstream
Codec ID : XVID
Codec ID/Hint : XviD
Duration : 1h 29mn
Bit rate : 1 915 Kbps
Width : 720 pixels
Height : 304 pixels
Display aspect ratio : 2.35:1
Frame rate : 23.976 fps
Color space : YUV
Chroma subsampling : 4:2:0
Bit depth : 8 bits
Scan type : Progressive
Compression mode : Lossy
Bits/(Pixel*Frame) : 0.365
Stream size : 1.20 GiB (88%)
Writing library : XviD 73
Audio #1
ID : 1
Format : AC-3
Format/Info : Audio Coding 3
Mode extension : CM (complete main)
Codec ID : 2000
Duration : 1h 29mn
Bit rate mode : Constant
Bit rate : 256 Kbps
Channel(s) : 2 channels
Channel positions : Front: L R
Sampling rate : 48.0 KHz
Bit depth : 16 bits
Compression mode : Lossy
Stream size : 165 MiB (12%)
Alignment : Split accross interleaves
Interleave, duration : 42 ms (1.00 video frame)
Interleave, preload duration : 500 ms

Скриншот c названием фильма

Скриншоты

[Цитировать]

Топик был перенесен из форума Новинки кинопроката в форум Триллер
Henkok



Показать сообщения:    

Текущее время: 07-Дек 19:25

Часовой пояс: UTC + 3


Вы не можете начинать темы
Вы не можете отвечать на сообщения
Вы не можете редактировать свои сообщения
Вы не можете удалять свои сообщения
Вы не можете голосовать в опросах
Вы не можете прикреплять файлы к сообщениям
Вы не можете скачивать файлы

!ВНИМАНИЕ!
Сайт не предоставляет электронные версии произведений, а занимается лишь коллекционированием и каталогизацией ссылок, присылаемых и публикуемых на форуме нашими читателями. Если вы являетесь правообладателем какого-либо представленного материала и не желаете, чтобы ссылка на него находилась в нашем каталоге, свяжитесь с нами, и мы незамедлительно удалим ее. Файлы для обмена на трекере предоставлены пользователями сайта, и администрация не несет ответственности за их содержание. Просьба не заливать файлы, защищенные авторскими правами, а также файлы нелегального содержания!