[ Сегодня идет свободное скачивание без начисления Download ]


Статистика раздачи
Нет
 
   
 
Top  
 
 
-Тимур Батыршинов | Учёт финансов на Android (2014) PCRec- Автор (режиссер): Тимур Батыршинов
Жанр: Android
Продолжительность: 17:00:00
Качество видео: PCRec
Видеокодек: AVC
Битрейт видео: ~228 kbps
Размер кадра: 1816х1024
Аудиокодек: AAC 2.0
Битрейт аудио: 123 kbps (CBR), 2 Ch, 44100 Hz
Описание:
Хотите разработать с нуля приложение "Учёт финансов"Мы подготовили для вас новый видеокурс, который поможет любому новичку быстро освоиться в Android программировании. Подобного курса пока еще в Рунете нет - мы долго искали хорошие материалы или видеоуроки - но к сожалению не нашли ничего похожего. Поэтому решили создать свой видеокурс, где на основе нескольких готовых проектов вы могли бы пройти все необходимые темы.
Помимо прохождения тем по Android вы также узнаете, как правильно и профессионально писать свой код. Это очень важно, потому что написать приложение - это только полдела.Если вы хотите научиться не только научиться программировать на Android, но и создавать правильный код - то вы должны уметь использовать: ООП и паттерны проектирования. Все это вы узнаете из курса, научитесь правильно создавать объекты, использовать паттерны и связывать все это с Android компонентами.

Дополнительная информация:

Что вы получите:
? Разработка на Android
Вы разработаете Android приложение с нуля при помощи eclipse и дополнительных плагинов
? Готовые проекты eclipse
Обучение на готовых исходниках - можно по шагам повторять все действия и получать результат
? Домашние задания
В каждом уроке представлены задания с решениями для закрепления материалов
В чём уникальность курса?
? Пошаговые действия
Вы разработаете приложение с нуля, начиная с установки нужных инструментов, заканчивая оптимизацией готового кода. Каждый следующий исходный код основывается на предыдущем.
? Профессиональный код
Помимо разбора тем по Android, мы будем уделять большое внимание качеству кода. Вы увидите, как используя возможности ООП создавать расширяемые код для Android приложений
? Возможность доработки
После прохождения видеокурса вы сможете дорабатывать свое приложение как вам будет удобно, добавляя любые функции и возможности. Таким образом, у вас получится ваше уникальное приложение со своим дизайном.
Что даёт вам знание Android?
? Быстрый заработок
Первые деньги можно получить довольно быстро, если правильно использовать свои наработки. Можно использовать разные каналы распространения.
? Пассивный доход
Можно один раз создать приложение и получать с него пассивный доход с Android Market. А если создать 10-15 таких приложений - финансовый поток станет очень хорошим.
? Клиенты по всем миру
У вас нет ограничений, вы можете разрабатывать и продавать свои приложения по всему миру, главное добавить поддержку нужного языка
Какие минимальные знание нужны?
? Формат данных XML
На XML основано создание интерфейсов в Android приложениях, поэтому нужно понимать этот форматы как структуру данных, что такое тегги, атрибуты и пр.
? Принципы ООП
Большое упор в курсе сделан на ООП - интерфейсы, абстрактные классы, объекты. Все это будет применяться совместно с графическими компонентами.
? Работа с JDBC
Вы должны иметь минимальные знания в использовании JDBC - как создать и выполнить запрос, обработать данные и заполнить коллекцию.
Какие блоки вы пройдёте?
? Проектирование приложения
? Структура приложения
? Фрагменты
? База данных SQLite
? Выборка данных
? Список операций
? Загрузка изображений
? Вложенные списки
? Настройки программы
? Обновление данных
? Сохранение последней операции
? Локализация
? Сохранение баланса
? Перевод средств
? Выбор валюты
? Конвертация
? Создание графиков
? Оптимизация
Бонус:
Установка и монетизация Android приложений в Google Play

MediaInfo:

Общее
Формат : MPEG-4
Профиль формата : Base Media / Version 2
Идентификатор кодека : mp42
Размер файла : 21,4 Мбайт
Режим общего битрейта : Переменный
Общий поток : 324 Кбит/сек
Видео
Идентификатор : 1
Формат : AVC
Формат/Информация : Advanced Video Codec
Профиль формата : Baseline@L4.0
Параметр CABAC формата : Нет
Параметр ReFrames формата : 3 кадра
Идентификатор кодека : avc1
Идентификатор кодека/Информация : Advanced Video Coding
Битрейт : 228 Кбит/сек
Ширина : 1816 пикселей
Высота : 1024 пикселя
Соотношение сторон : 16:9
Режим частоты кадров : Переменный
Частота кадров : 30,000 кадров/сек
Минимальная частота кадров : 30,000 кадров/сек
Максимальная частота кадров : 30,030 кадров/сек
Стандарт вещания : NTSC
Цветовое пространство : YUV
Субдискретизация насыщенности : 4:2:0
Битовая глубина : 8 бит
Тип развёртки : Прогрессивная
Бит/(Пиксели*Кадры) : 0.004
Размер потока : 15,0 Мбайт (70%)
Размер потока оригинала : 15,0 Мбайт (70%)
Аудио
Идентификатор : 2
Формат : AAC
Формат/Информация : Advanced Audio Codec
Профиль формата : LC
Идентификатор кодека : 40
Вид битрейта : Переменный
Битрейт : 93,6 Кбит/сек
Максимальный битрейт : 123 Кбит/сек
Каналы : 2 канала
Расположение каналов : Front: L R
Частота : 44,1 КГц
Метод сжатия : С потерями
Размер потока : 6,16 Мбайт (29%)
Размер потока оригинала : 6,16 Мбайт (29%)
Скриншоты:

[Цитировать]



Показать сообщения:    

Текущее время: 18-Янв 23:17

Часовой пояс: UTC + 3


Вы не можете начинать темы
Вы не можете отвечать на сообщения
Вы не можете редактировать свои сообщения
Вы не можете удалять свои сообщения
Вы не можете голосовать в опросах
Вы не можете прикреплять файлы к сообщениям
Вы не можете скачивать файлы

!ВНИМАНИЕ!
Сайт не предоставляет электронные версии произведений, а занимается лишь коллекционированием и каталогизацией ссылок, присылаемых и публикуемых на форуме нашими читателями. Если вы являетесь правообладателем какого-либо представленного материала и не желаете, чтобы ссылка на него находилась в нашем каталоге, свяжитесь с нами, и мы незамедлительно удалим ее. Файлы для обмена на трекере предоставлены пользователями сайта, и администрация не несет ответственности за их содержание. Просьба не заливать файлы, защищенные авторскими правами, а также файлы нелегального содержания!