[ Today is free to download without increasing Download ]

DL-List and Torrent activity
Мундасупатти / Mundaasupatti Страна: Индия
Жанр: Комедия
Год выпуска: 2014
Продолжительность: 02:25:20
Перевод: Субтитры
Cубтитры: русские
Релиз-группа: Deepavali
Перевод субтитров: Sima Kivi
Оригинальная аудиодорожка: Тамильский
Режиссер: Рам / Ram
В ролях: Вишну Вишал, Нандита, Кали Венкат
Описание: 1982 год. В городке Сатьямангалам успешно идут дела фото-студии "Шри Голливуд", заправляют которой мастер Гопи и его помощник Алагумани. Свадьбы, праздники.. ребята с радостью брались за любую работу, пока однажды к ним не пожаловал старик с весьма необычной просьбой - сфотографировать почившего главу его деревни под названием Мундасупатти. Причина оказалась проста: в тех краях позволялось фотографировать лишь после смерти, ведь согласно местному суеверию, любой человек, запечатлённый на плёнку при жизни, немедленно умрёт от неизвестной болезни. Получив щедрый аванс, Гопи соглашается ехать, ещё не зная, что в Мундасупатти он встретит свою судьбу..

Качество видео: BDRip
Формат видео: AVI
Видео: Xvid, 720x304, 23.976 fps, 1029 kbps
Аудио: AC3, 44.1 kHz, 6 channels, 448 kbps
Формат субтитров: hardsub (неотключаемые)


Complete name : I:\кино - Индия\Mundasupatti.2014.BDRip.Xvid.Deepavali.avi
Format : AVI
Format/Info : Audio Video Interleave
File size : 1.47 GiB
Duration : 2h 25mn
Overall bit rate : 1 443 Kbps
Writing application : VirtualDubMod | www.virtualdub-fr.org || (build 2550/release)
Writing library : VirtualDubMod build 2550/release
ID : 0
Format : MPEG-4 Visual
Format profile : Advanced Simple@L5
Format settings, BVOP : Yes
Format settings, QPel : No
Format settings, GMC : No warppoints
Format settings, Matrix : Default (MPEG)
Codec ID : DX50
Codec ID/Hint : DivX 5
Duration : 2h 25mn
Bit rate : 986 Kbps
Width : 720 pixels
Height : 304 pixels
Display aspect ratio : 2.35:1
Frame rate : 23.976 fps
Color space : YUV
Chroma subsampling : 4:2:0
Bit depth : 8 bits
Scan type : Progressive
Bits/(Pixel*Frame) : 0.188
Stream size : 1.00 GiB (68%)
Writing library : XviD 1.2.1 (UTC 2008-12-04)
ID : 1
Format : AC-3
Format/Info : Audio Coding 3
Mode extension : CM (complete main)
Codec ID : 2000
Duration : 2h 25mn
Bit rate mode : Constant
Bit rate : 448 Kbps
Channel(s) : 6 channels
Channel positions : Front: L C R, Side: L R, LFE
Sampling rate : 44.1 KHz
Stream size : 466 MiB (31%)
Alignment : Split accross interleaves
Interleave, duration : 42 ms (1.00 video frame)
Interleave, preload duration : 500 ms

Скриншот c названием фильма


Display posts:    

Current time is: 27-Oct 23:38

All times are UTC + 3

You cannot post new topics in this forum
You cannot reply to topics in this forum
You cannot edit your posts in this forum
You cannot delete your posts in this forum
You cannot vote in polls in this forum
You cannot attach files in this forum
You cannot download files in this forum

The site does not give electronic versions of products, and is engaged only in a collecting and cataloguing of the references sent and published at a forum by our readers. If you are the legal owner of any submitted material and do not wish that the reference to it was in our catalogue, contact us and we shall immediately remove her. Files for an exchange on tracker are given by users of a site, and the administration does not bear the responsibility for their maintenance. The request to not fill in the files protected by copyrights, and also files of the illegal maintenance!