[ Сегодня идет свободное скачивание без начисления Download ]


Статистика раздачи
Нет
 
   
 
Top  
 
 
Мундасупатти / Mundaasupatti Страна: Индия
Жанр: Комедия
Год выпуска: 2014
Продолжительность: 02:25:20
Перевод: Субтитры
Cубтитры: русские
Релиз-группа: Deepavali
Перевод субтитров: Sima Kivi
Оригинальная аудиодорожка: Тамильский
Режиссер: Рам / Ram
В ролях: Вишну Вишал, Нандита, Кали Венкат
Описание: 1982 год. В городке Сатьямангалам успешно идут дела фото-студии "Шри Голливуд", заправляют которой мастер Гопи и его помощник Алагумани. Свадьбы, праздники.. ребята с радостью брались за любую работу, пока однажды к ним не пожаловал старик с весьма необычной просьбой - сфотографировать почившего главу его деревни под названием Мундасупатти. Причина оказалась проста: в тех краях позволялось фотографировать лишь после смерти, ведь согласно местному суеверию, любой человек, запечатлённый на плёнку при жизни, немедленно умрёт от неизвестной болезни. Получив щедрый аванс, Гопи соглашается ехать, ещё не зная, что в Мундасупатти он встретит свою судьбу..

Качество видео: BDRip
Формат видео: AVI
Видео: Xvid, 720x304, 23.976 fps, 1029 kbps
Аудио: AC3, 44.1 kHz, 6 channels, 448 kbps
Формат субтитров: hardsub (неотключаемые)

MediaInfo

General
Complete name : I:\кино - Индия\Mundasupatti.2014.BDRip.Xvid.Deepavali.avi
Format : AVI
Format/Info : Audio Video Interleave
File size : 1.47 GiB
Duration : 2h 25mn
Overall bit rate : 1 443 Kbps
Writing application : VirtualDubMod 1.5.10.3 | www.virtualdub-fr.org || (build 2550/release)
Writing library : VirtualDubMod build 2550/release
Video
ID : 0
Format : MPEG-4 Visual
Format profile : Advanced Simple@L5
Format settings, BVOP : Yes
Format settings, QPel : No
Format settings, GMC : No warppoints
Format settings, Matrix : Default (MPEG)
Codec ID : DX50
Codec ID/Hint : DivX 5
Duration : 2h 25mn
Bit rate : 986 Kbps
Width : 720 pixels
Height : 304 pixels
Display aspect ratio : 2.35:1
Frame rate : 23.976 fps
Color space : YUV
Chroma subsampling : 4:2:0
Bit depth : 8 bits
Scan type : Progressive
Bits/(Pixel*Frame) : 0.188
Stream size : 1.00 GiB (68%)
Writing library : XviD 1.2.1 (UTC 2008-12-04)
Audio
ID : 1
Format : AC-3
Format/Info : Audio Coding 3
Mode extension : CM (complete main)
Codec ID : 2000
Duration : 2h 25mn
Bit rate mode : Constant
Bit rate : 448 Kbps
Channel(s) : 6 channels
Channel positions : Front: L C R, Side: L R, LFE
Sampling rate : 44.1 KHz
Stream size : 466 MiB (31%)
Alignment : Split accross interleaves
Interleave, duration : 42 ms (1.00 video frame)
Interleave, preload duration : 500 ms

Скриншот c названием фильма

[Цитировать]



Показать сообщения:    

Текущее время: 07-Дек 23:23

Часовой пояс: UTC + 3


Вы не можете начинать темы
Вы не можете отвечать на сообщения
Вы не можете редактировать свои сообщения
Вы не можете удалять свои сообщения
Вы не можете голосовать в опросах
Вы не можете прикреплять файлы к сообщениям
Вы не можете скачивать файлы

!ВНИМАНИЕ!
Сайт не предоставляет электронные версии произведений, а занимается лишь коллекционированием и каталогизацией ссылок, присылаемых и публикуемых на форуме нашими читателями. Если вы являетесь правообладателем какого-либо представленного материала и не желаете, чтобы ссылка на него находилась в нашем каталоге, свяжитесь с нами, и мы незамедлительно удалим ее. Файлы для обмена на трекере предоставлены пользователями сайта, и администрация не несет ответственности за их содержание. Просьба не заливать файлы, защищенные авторскими правами, а также файлы нелегального содержания!