[ Сегодня идет свободное скачивание без начисления Download ]


Статистика раздачи
Нет
 
   
 
Top  
 
 
Связь / Coherence
Страна: США
Жанр: фантастика, триллер
Год выпуска: 2013
Продолжительность: 01:28:18
Перевод: Одноголосый закадровый lord666 по субтитрам Janetta
Cубтитры: нет
Оригинальная аудиодорожка: нет
Режиссер: Джеймс Уорд Биркит / James Ward Byrkit
В ролях: Эмили Бальдони, Мори Стерлинг, Николас Брендон, Элизабет Грэйсен, Алекс Манугян, Лорен Мехер, Хьюго Армстронг, Лорин Скафария
Описание: Появление несколько лет назад в небе необычно яркой кометы сопровождалось множеством свидетельств о необычных и даже мистических событиях, происходивших по всей Земле. Именно рассказы об этих странных происшествиях становятся главной темой разговоров для восьми друзей, собравшихся на званый ужин. Герои фильма еще не знают, что этим вечером, когда над их головами пройдет еще одна загадочная комета, они сами станут свидетелями удивительных физических аномалий, ставящих под сомнения все наши научные представления о вселенной...
Доп. информация:
Сэмпл: http://multi-up.com/1011303
Качество видео: HDRip-AVC
Формат видео: MKV
Видео: V_MPEG4/ISO/AVC, 848x368, 2.35:1, 23.976 fps, 1 867 Kbps
Аудио: AC-3, 48 kHz, 384 Kbps, 6 каналов

MediaInfo

General
Unique ID : 236892376180245778988538365925879945075 (0xB237CFE5041DF73C90557589D86F9773)
Complete name : D:\фильмы.avi\uploaded\Coherence\Coherence.2013.HDRip.VO.lord666.mkv
Format : Matroska
Format version : Version 2
File size : 1.39 GiB
Duration : 1h 28mn
Overall bit rate : 2 252 Kbps
Encoded date : UTC 2014-11-05 19:19:29
Writing application : mkvmerge v5.8.0 ('No Sleep / Pillow') built on Sep 2 2012 15:37:04
Writing library : libebml v1.2.3 + libmatroska v1.3.0
Video
ID : 1
Format : AVC
Format/Info : Advanced Video Codec
Format profile : [email protected]
Format settings, CABAC : Yes
Format settings, ReFrames : 8 frames
Codec ID : V_MPEG4/ISO/AVC
Duration : 1h 28mn
Bit rate : 1 867 Kbps
Width : 848 pixels
Height : 368 pixels
Display aspect ratio : 2.35:1
Frame rate mode : Constant
Frame rate : 23.976 fps
Color space : YUV
Chroma subsampling : 4:2:0
Bit depth : 8 bits
Scan type : Progressive
Bits/(Pixel*Frame) : 0.250
Stream size : 1.12 GiB (81%)
Writing library : x264 core 142 r2453 ea0ca51
Encoding settings : cabac=1 / ref=9 / deblock=1:-2:-1 / analyse=0x3:0x113 / me=umh / subme=10 / psy=1 / psy_rd=1.05:0.15 / mixed_ref=0 / me_range=38 / chroma_me=1 / trellis=2 / 8x8dct=1 / cqm=0 / deadzone=21,11 / fast_pskip=1 / chroma_qp_offset=-5 / threads=6 / lookahead_threads=1 / sliced_threads=0 / nr=0 / decimate=0 / interlaced=0 / bluray_compat=0 / constrained_intra=0 / bframes=3 / b_pyramid=1 / b_adapt=1 / b_bias=0 / direct=3 / weightb=1 / open_gop=0 / weightp=1 / keyint=240 / keyint_min=23 / scenecut=40 / intra_refresh=0 / rc_lookahead=10 / rc=2pass / mbtree=1 / bitrate=1867 / ratetol=1.0 / qcomp=0.60 / qpmin=0 / qpmax=69 / qpstep=4 / cplxblur=20.0 / qblur=0.5 / vbv_maxrate=30000 / vbv_bufsize=30000 / nal_hrd=none / filler=0 / ip_ratio=1.40 / aq=1:1.00
Default : No
Forced : No
Color primaries : Generic film
Audio
ID : 2
Format : AC-3
Format/Info : Audio Coding 3
Mode extension : CM (complete main)
Format settings, Endianness : Big
Codec ID : A_AC3
Duration : 1h 28mn
Bit rate mode : Constant
Bit rate : 384 Kbps
Channel(s) : 6 channels
Channel positions : Front: L C R, Side: L R, LFE
Sampling rate : 48.0 KHz
Bit depth : 16 bits
Compression mode : Lossy
Stream size : 243 MiB (17%)
Title : lord666
Language : Russian
Default : Yes
Forced : No

Скриншот c названием фильма

Скриншоты

[Цитировать]



Показать сообщения:    

Текущее время: 06-Дек 11:07

Часовой пояс: UTC + 3


Вы не можете начинать темы
Вы не можете отвечать на сообщения
Вы не можете редактировать свои сообщения
Вы не можете удалять свои сообщения
Вы не можете голосовать в опросах
Вы не можете прикреплять файлы к сообщениям
Вы не можете скачивать файлы

!ВНИМАНИЕ!
Сайт не предоставляет электронные версии произведений, а занимается лишь коллекционированием и каталогизацией ссылок, присылаемых и публикуемых на форуме нашими читателями. Если вы являетесь правообладателем какого-либо представленного материала и не желаете, чтобы ссылка на него находилась в нашем каталоге, свяжитесь с нами, и мы незамедлительно удалим ее. Файлы для обмена на трекере предоставлены пользователями сайта, и администрация не несет ответственности за их содержание. Просьба не заливать файлы, защищенные авторскими правами, а также файлы нелегального содержания!