[ Today is free to download without increasing Download ]

DL-List and Torrent activity
Пи Мак из Фра Ханонга / Pee Mak Phrakanong
Страна: Таиланд
Жанр: Ужасы, комедия, мелодрама
Год выпуска: 2013
Продолжительность: 1:51:52
Перевод: Любительский (двухголосый закадровый) den904 & DeadSno
Cубтитры: нет
Оригинальная аудиодорожка: нет
Режиссер: Баньенг Писензенекун / Banjong Pisanthanakun
В ролях: Марио Морер, Наттапонг Чартпонг, Понгсаторн Джонгвилак, Виват Конграсри, Кантапат Пермпунпатчарасук
Описание: После окончания войны, Мак приглашает своих друзей погостить у него в деревне и познакомиться с его женой. Друзей принимают тепло и радушно, даже дом отдают им для проживания и вообще все хорошо и мило. Но тут начинают происходить странные вещи. Да и про жену Мака по деревне ходят пугающие слухи.
Сэмпл: http://multi-up.com/967315
Качество видео: HDRip
Формат видео: AVI
Видео: Xvid 720x304 24.00fps 1 697 Kbps
Аудио: Dolby AC3 48000Hz stereo 192kbps


Format : AVI
Format/Info : Audio Video Interleave
File size : 1.48 GiB
Duration : 1h 51mn
Overall bit rate : 1 898 Kbps
Writing application : VirtualDubMod | www.virtualdub-fr.org || (build 2550/release)
Writing library : VirtualDubMod build 2550/release
ID : 0
Format : MPEG-4 Visual
Format profile : Advanced Simple@L5
Format settings, BVOP : Yes
Format settings, QPel : No
Format settings, GMC : No warppoints
Format settings, Matrix : Custom
Codec ID : XVID
Codec ID/Hint : XviD
Duration : 1h 51mn
Bit rate : 1 697 Kbps
Width : 720 pixels
Height : 304 pixels
Display aspect ratio : 2.35:1
Frame rate : 24.000 fps
Resolution : 8 bits
Colorimetry : 4:2:0
Scan type : Progressive
Bits/(Pixel*Frame) : 0.323
Stream size : 1.33 GiB (89%)
Writing library : XviD 73
ID : 1
Format : AC-3
Format/Info : Audio Coding 3
Codec ID : 2000
Duration : 1h 51mn
Bit rate mode : Constant
Bit rate : 192 Kbps
Channel(s) : 2 channels
Channel positions : L R
Sampling rate : 48.0 KHz
Stream size : 154 MiB (10%)
Alignment : Split accross interleaves
Interleave, duration : 42 ms (1.00 video frame)
Interleave, preload duration : 500 ms

Скриншот c названием фильма



Display posts:    

Current time is: 25-Oct 16:45

All times are UTC + 3

You cannot post new topics in this forum
You cannot reply to topics in this forum
You cannot edit your posts in this forum
You cannot delete your posts in this forum
You cannot vote in polls in this forum
You cannot attach files in this forum
You cannot download files in this forum

The site does not give electronic versions of products, and is engaged only in a collecting and cataloguing of the references sent and published at a forum by our readers. If you are the legal owner of any submitted material and do not wish that the reference to it was in our catalogue, contact us and we shall immediately remove her. Files for an exchange on tracker are given by users of a site, and the administration does not bear the responsibility for their maintenance. The request to not fill in the files protected by copyrights, and also files of the illegal maintenance!