[ Сегодня идет свободное скачивание без начисления Download ]


Статистика раздачи
Нет
 
   
 
Top  
 
 
Пи Мак из Фра Ханонга / Pee Mak Phrakanong
Страна: Таиланд
Жанр: Ужасы, комедия, мелодрама
Год выпуска: 2013
Продолжительность: 1:51:52
Перевод: Любительский (двухголосый закадровый) den904 & DeadSno
Cубтитры: нет
Оригинальная аудиодорожка: нет
Режиссер: Баньенг Писензенекун / Banjong Pisanthanakun
В ролях: Марио Морер, Наттапонг Чартпонг, Понгсаторн Джонгвилак, Виват Конграсри, Кантапат Пермпунпатчарасук
Описание: После окончания войны, Мак приглашает своих друзей погостить у него в деревне и познакомиться с его женой. Друзей принимают тепло и радушно, даже дом отдают им для проживания и вообще все хорошо и мило. Но тут начинают происходить странные вещи. Да и про жену Мака по деревне ходят пугающие слухи.
Сэмпл: http://multi-up.com/967315
Качество видео: HDRip
Формат видео: AVI
Видео: Xvid 720x304 24.00fps 1 697 Kbps
Аудио: Dolby AC3 48000Hz stereo 192kbps

MediaInfo

Format : AVI
Format/Info : Audio Video Interleave
File size : 1.48 GiB
Duration : 1h 51mn
Overall bit rate : 1 898 Kbps
Writing application : VirtualDubMod 1.5.10.3 | www.virtualdub-fr.org || (build 2550/release)
Writing library : VirtualDubMod build 2550/release
Video
ID : 0
Format : MPEG-4 Visual
Format profile : Advanced [email protected]
Format settings, BVOP : Yes
Format settings, QPel : No
Format settings, GMC : No warppoints
Format settings, Matrix : Custom
Codec ID : XVID
Codec ID/Hint : XviD
Duration : 1h 51mn
Bit rate : 1 697 Kbps
Width : 720 pixels
Height : 304 pixels
Display aspect ratio : 2.35:1
Frame rate : 24.000 fps
Resolution : 8 bits
Colorimetry : 4:2:0
Scan type : Progressive
Bits/(Pixel*Frame) : 0.323
Stream size : 1.33 GiB (89%)
Writing library : XviD 73
Audio
ID : 1
Format : AC-3
Format/Info : Audio Coding 3
Codec ID : 2000
Duration : 1h 51mn
Bit rate mode : Constant
Bit rate : 192 Kbps
Channel(s) : 2 channels
Channel positions : L R
Sampling rate : 48.0 KHz
Stream size : 154 MiB (10%)
Alignment : Split accross interleaves
Interleave, duration : 42 ms (1.00 video frame)
Interleave, preload duration : 500 ms

Скриншот c названием фильма

Скриншоты

[Цитировать]



Показать сообщения:    

Текущее время: 05-Дек 03:28

Часовой пояс: UTC + 3


Вы не можете начинать темы
Вы не можете отвечать на сообщения
Вы не можете редактировать свои сообщения
Вы не можете удалять свои сообщения
Вы не можете голосовать в опросах
Вы не можете прикреплять файлы к сообщениям
Вы не можете скачивать файлы

!ВНИМАНИЕ!
Сайт не предоставляет электронные версии произведений, а занимается лишь коллекционированием и каталогизацией ссылок, присылаемых и публикуемых на форуме нашими читателями. Если вы являетесь правообладателем какого-либо представленного материала и не желаете, чтобы ссылка на него находилась в нашем каталоге, свяжитесь с нами, и мы незамедлительно удалим ее. Файлы для обмена на трекере предоставлены пользователями сайта, и администрация не несет ответственности за их содержание. Просьба не заливать файлы, защищенные авторскими правами, а также файлы нелегального содержания!