[ Сегодня идет свободное скачивание без начисления Download ]


Статистика раздачи
Нет
 
   
 
Top  
 
 
-Елена Домашева | Создание сайта для мобильных устройств в Adobe Muse (2014) PCRec [H.264/720p-LQ]- Автор (режиссер): Елена Домашева
Жанр: Веб-дизайн
Продолжительность: 03:07:03
Качество видео: PCRec
Видеокодек: AVC
Битрейт видео: ~62,4 - 940 kbps
Размер кадра: 1152х720, 1280х720
Аудиокодек: AAC 2.0
Битрейт аудио: 53,4 - 80,6 kbps (CBR), 2 Ch, 44100 Hz
Доп. материалы: Есть
Описание:
В этом курсе я подробно расскажу об особенностях создания мобильного макета сайта в Adobe Muse, как адаптировать сайт для более удобного использования на небольшом экране смартфона. Вы научитесь переносить контент из настольной версии сайта, создавать слайд-шоу, применять якоря и параллакс эффект перемещения, создавать альтернативный макет с горизонтальным пролистыванием страниц и многое другое. В конце курса я поделюсь с вами полезными ресурсами для саморазвития и вдохновения.
Данный курс подходит тем кто овладел базовыми навыками по созданию простых сайтов в программе Adobe Muse и хочет получить навыки создания сайтов, адаптированных для использования на мобильных устройствах.
В этом курсе я подробно расскажу об особенностях создания мобильного макета сайта в Adobe Muse, стратегиях расположения контента на сайтах для смартфонов, как добавить интерактивные элементы, параллакс эффект и многое другое.

Чему вы научитесь:

Изучите основы создания мобильного сайта в Adobe Muse быстро и эффективно.
Приобретете навыки, необходимые для создания и публикации мобильного сайта а Adobe Muse.
Научитесь создавать мобильную версию сайта в Adobe Muse.
Адаптировать контент сайта под небольшой экран смартфона.
Сможете создавать компактное меню навигации для мобильного сайта в Adobe Muse.
Узнаете как синхронизировать текстовый контент между макетами сайта.
Научитесь добавлять якоря и параллакс эффект на мобильную версию сайта.
Научитесь создавать мобильный сайт с горизонтальным пролистываем страниц в Adobe Muse.
Узнаете как опубликовать мобильную версию сайта, созданного в Adobe Muse.

Учебный план:

Раздел 1: Введение
1. Приветствие
2. Зачем нужно создавать мобильную версию сайта
3. 7 правил создания эффективных мобильных сайтов
Раздел 2: Создание мобильного сайта
4. Создаем новый мобильный сайт и задаем настройки будущего сайта в Adobe Muse
5. Создание мобильного сайта на основе версии сайта Компьютер в Adobe Muse
6. Способы просмотра мобильной версии сайта на разных девайсах
7. Создание шаблонной страницы для макета "Телефон" в Adobe Muse
Раздел 3: Варианты меню навигации сайта для мобильных устройств в Adobe Muse
8. Обзор видов навигационного меню для мобильных сайтов
9. Создание меню с помощью виджета "Раздвижная панель" в Adobe Muse
10. Создание меню навигации в стиле "Лайтбокс" в Adobe Muse
11. Меню навигации в стиле "Слайд-шоу"
Раздел 4: Размещение контента мобильного сайта в Adobe Muse
12. Перенос текста и текстовых стилей на мобильный сайт в Adobe Muse
13. Создание слайдшоу для мобильной версии сайта в Adobe Muse
14. Создание слайдшоу для портфолио и галереи работ в Adobe Muse
15. Адаптирование информационного блока под мобильную версию сайта Adobe Muse
16. Особенности создания кнопок для мобильной версии сайта
Раздел 5: Добавление интерактивных элементов на мобильный сайт в Adobe Muse
17. Использование якорей на мобильной версии сайта в Adobe Muse
18. Добавление перекрестных ссылок на разные макеты сайта в Adobe Muse
19. Добавление параллакс эффекта на мобильный сайт в Adobe Muse
20. Добавление параллакс эффекта на страницу контакты в Adobe Muse
21. Создание кнопок связи в один клик на странице контакты в приложении Adobe Muse
22. Создание мобильного сайта в Adobe Muse с горизонтальным пролистыванием страниц
Раздел 6: Публикация мобильного сайта Adobe Muse
23. Создание иконки мобильного сайта
24. Публикация мобильного сайта
25. Функция редактирования мобильного сайта Adobe Muse в браузере
Раздел 7: Заключение
26. Ресурсы для саморазвития и вдохновения
27. Спасибо и до новых встреч

MediaInfo:

Общее
Полное имя                               : C:\Создание сайта для мобильных устройств в Adobe Muse - 2014\mobilesite-1.2.mp4
Формат                                   : MPEG-4
Профиль формата                          : Base Media
Идентификатор кодека                     : isom
Размер файла                             : 5,63 Мбайт
Продолжительность                        : 3 м. 0 с.
Режим общего битрейта                    : Переменный
Общий поток                              : 261 Кбит/сек
Дата кодирования                         : UTC 2014-11-27 02:57:32
Дата пометки                             : UTC 2014-11-27 02:57:32
Видео
Идентификатор                            : 1
Формат                                   : AVC
Формат/Информация                        : Advanced Video Codec
Профиль формата                          : [url=mailto:[email protected]][email protected][/url]
Параметр CABAC формата                   : Нет
Параметр ReFrames формата                : 3 кадра
Идентификатор кодека                     : avc1
Идентификатор кодека/Информация          : Advanced Video Coding
Продолжительность                        : 3 м. 0 с.
Битрейт                                  : 178 Кбит/сек
Максимальный битрейт                     : 1228 Кбит/сек
Ширина                                   : 1152 пикселя
Высота                                   : 720 пикселей
Соотношение сторон                       : 16:10
Режим частоты кадров                     : Постоянный
Частота кадров                           : 30,000 кадров/сек
Цветовое пространство                    : YUV
Субдискретизация насыщенности            : 4:2:0
Битовая глубина                          : 8 бит
Тип развёртки                            : Прогрессивная
Бит/(Пиксели*Кадры)                      : 0.007
Размер потока                            : 3,83 Мбайт (68%)
Библиотека кодирования                   : Zencoder Video Encoding System
Дата кодирования                         : UTC 2014-11-27 02:57:16
Дата пометки                             : UTC 2014-11-27 02:57:32
Аудио
Идентификатор                            : 2
Формат                                   : AAC
Формат/Информация                        : Advanced Audio Codec
Профиль формата                          : LC
Идентификатор кодека                     : 40
Продолжительность                        : 3 м. 0 с.
Вид битрейта                             : Переменный
Битрейт                                  : 80,6 Кбит/сек
Максимальный битрейт                     : 95,8 Кбит/сек
Каналы                                   : 2 канала
Расположение каналов                     : Front: L R
Частота                                  : 44,1 КГц
Метод сжатия                             : С потерями
Размер потока                            : 1,74 Мбайт (31%)
Дата кодирования                         : UTC 2014-11-27 02:57:32
Дата пометки                             : UTC 2014-11-27 02:57:32
Общее
Полное имя                               : C:\Создание сайта для мобильных устройств в Adobe Muse - 2014\mobilesite-2.1.mp4
Формат                                   : MPEG-4
Профиль формата                          : Base Media
Идентификатор кодека                     : isom
Размер файла                             : 10,4 Мбайт
Продолжительность                        : 4 м. 40 с.
Режим общего битрейта                    : Переменный
Общий поток                              : 311 Кбит/сек
Дата кодирования                         : UTC 2014-11-18 05:14:28
Дата пометки                             : UTC 2014-11-18 05:14:28
Видео
Идентификатор                            : 1
Формат                                   : AVC
Формат/Информация                        : Advanced Video Codec
Профиль формата                          : [url=mailto:[email protected]][email protected][/url]
Параметр CABAC формата                   : Нет
Параметр ReFrames формата                : 3 кадра
Параметр GOP формата                     : M=1, N=75
Идентификатор кодека                     : avc1
Идентификатор кодека/Информация          : Advanced Video Coding
Продолжительность                        : 4 м. 40 с.
Битрейт                                  : 236 Кбит/сек
Максимальный битрейт                     : 3252 Кбит/сек
Ширина                                   : 1280 пикселей
Высота                                   : 720 пикселей
Соотношение сторон                       : 16:9
Режим частоты кадров                     : Постоянный
Частота кадров                           : 30,000 кадров/сек
Цветовое пространство                    : YUV
Субдискретизация насыщенности            : 4:2:0
Битовая глубина                          : 8 бит
Тип развёртки                            : Прогрессивная
Бит/(Пиксели*Кадры)                      : 0.009
Размер потока                            : 7,88 Мбайт (76%)
Библиотека кодирования                   : Zencoder Video Encoding System
Дата кодирования                         : UTC 2014-11-18 05:14:07
Дата пометки                             : UTC 2014-11-18 05:14:28
Аудио
Идентификатор                            : 2
Формат                                   : AAC
Формат/Информация                        : Advanced Audio Codec
Профиль формата                          : LC
Идентификатор кодека                     : 40
Продолжительность                        : 4 м. 40 с.
Вид битрейта                             : Переменный
Битрейт                                  : 72,0 Кбит/сек
Максимальный битрейт                     : 97,2 Кбит/сек
Каналы                                   : 2 канала
Расположение каналов                     : Front: L R
Частота                                  : 44,1 КГц
Метод сжатия                             : С потерями
Размер потока                            : 2,43 Мбайт (23%)
Дата кодирования                         : UTC 2014-11-18 05:14:28
Дата пометки                             : UTC 2014-11-18 05:14:28
Скриншоты:

[Цитировать]



Показать сообщения:    

Текущее время: 04-Дек 02:54

Часовой пояс: UTC + 3


Вы не можете начинать темы
Вы не можете отвечать на сообщения
Вы не можете редактировать свои сообщения
Вы не можете удалять свои сообщения
Вы не можете голосовать в опросах
Вы не можете прикреплять файлы к сообщениям
Вы не можете скачивать файлы

!ВНИМАНИЕ!
Сайт не предоставляет электронные версии произведений, а занимается лишь коллекционированием и каталогизацией ссылок, присылаемых и публикуемых на форуме нашими читателями. Если вы являетесь правообладателем какого-либо представленного материала и не желаете, чтобы ссылка на него находилась в нашем каталоге, свяжитесь с нами, и мы незамедлительно удалим ее. Файлы для обмена на трекере предоставлены пользователями сайта, и администрация не несет ответственности за их содержание. Просьба не заливать файлы, защищенные авторскими правами, а также файлы нелегального содержания!