[ Сегодня идет свободное скачивание без начисления Download ]


Статистика раздачи
Нет
 
   
 
Top  
 
 
Золотой лотос / Swarna Kamalam
Страна: Индия
Жанр: Мелодрама
Год выпуска: 1988
Продолжительность: 02:15:28
Перевод: Одноголосый закадровый Ксения Воронина
Cубтитры: нет
Режиссер: Кашинадхури Вишванатх / Kashinadhuri Vishwanath
В ролях: Бхануприя, Венкатеш Даггубати, Девилалита, Шэрон Ловен, Брахманандам, Сакши Ранга Рао, Шрилакшми, Павала Шьямала
Описание: У прославленного учителя музыки и танца Шешендры Шармы две дочери. Старшая - Савитри (Девилалита) - занимается пением, в чем достигла значительных успехов. А вот младшей - Минакши (Бхануприя) - занятия классическим танцем совершенно не по душе. Под разными предлогами она старается сбежать из дому в кино или на встречу с подругами. Мечта Минакши - поскорее выйти замуж за богача и до конца своих дней ни в чем себе не отказывать. Тем не менее, с технической точки зрения Минакши все танцевальные движения выполняет верно, но в ее танце нет души, преданности. Живущий по соседству Чандрам (Венкатеш) видит, что потенциал Минакши как классической танцовщицы невероятно велик. И он решает приложить все усилия, чтобы пробудить в сердце девушки искреннее желание посвятить всю себя искусству танца...
Доп. информация: Перевод, озвучание, работа со звуком : Ксения Воронина (Shizik ака Classicdancer_1) (Спасибо!)
Сэмпл: http://multi-up.com/1042441
Качество видео: DVDRip
Формат видео: AVI
Видео: XviD build 50, 640x480 (1.33:1), 29.970 fps, 1277 kbps avg
Аудио: MPEG Layer 3, 44.100 kHz, 2/0 (L,R) ch, 256.00 kbps avg

MediaInfo

General
Complete name : D:\Zolotoy.lotos.1988.DVDRip.avi
Format : AVI
Format/Info : Audio Video Interleave
File size : 1.46 GiB
Duration : 2h 15mn
Overall bit rate : 1 545 Kbps
Writing application : VirtualDubMod 1.5.10.2 (build 2540/release)
Writing library : VirtualDubMod build 2540/release
Video
ID : 0
Format : MPEG-4 Visual
Format profile : AdvancedSimple@L5
Format settings, BVOP : Yes
Format settings, QPel : No
Format settings, GMC : No warppoints
Format settings, Matrix : Custom
Codec ID : XVID
Codec ID/Hint : XviD
Duration : 2h 15mn
Bit rate : 1 277 Kbps
Width : 640 pixels
Height : 480 pixels
Display aspect ratio : 4/3
Frame rate : 29.970 fps
Resolution : 24 bits
Colorimetry : 4:2:0
Scan type : Progressive
Bits/(Pixel*Frame) : 0.139
Stream size : 1.21 GiB (83%)
Writing library : XviD 1.2.1 (UTC 2008-12-04)
Audio
ID : 1
Format : MPEG Audio
Format version : Version 1
Format profile : Layer 3
Codec ID : 55
Codec ID/Hint : MP3
Duration : 2h 15mn
Bit rate mode : Constant
Bit rate : 256 Kbps
Channel(s) : 2 channels
Sampling rate : 44.1 KHz
Resolution : 16 bits
Stream size : 248 MiB (17%)
Alignment : Split accross interleaves
Interleave, duration : 33 ms (1.00 video frame)
Interleave, preload duration : 500 ms

Скриншоты

[Цитировать]



Показать сообщения:    

Текущее время: 09-Дек 08:52

Часовой пояс: UTC + 3


Вы не можете начинать темы
Вы не можете отвечать на сообщения
Вы не можете редактировать свои сообщения
Вы не можете удалять свои сообщения
Вы не можете голосовать в опросах
Вы не можете прикреплять файлы к сообщениям
Вы не можете скачивать файлы

!ВНИМАНИЕ!
Сайт не предоставляет электронные версии произведений, а занимается лишь коллекционированием и каталогизацией ссылок, присылаемых и публикуемых на форуме нашими читателями. Если вы являетесь правообладателем какого-либо представленного материала и не желаете, чтобы ссылка на него находилась в нашем каталоге, свяжитесь с нами, и мы незамедлительно удалим ее. Файлы для обмена на трекере предоставлены пользователями сайта, и администрация не несет ответственности за их содержание. Просьба не заливать файлы, защищенные авторскими правами, а также файлы нелегального содержания!