[ Сегодня идет свободное скачивание без начисления Download ]


Статистика раздачи
Нет
 
   
 
Top  
 
 
Кольт 45 / Colt 45
Страна: Франция, Бельгия
Жанр: боевик, триллер, драма, криминал
Год выпуска: 2014
Продолжительность:01:23:51
Перевод: Любительский (многоголосый закадровый) [Paradox]
Оригинальная аудиодорожка: нет
Cубтитры: нет
Режиссер: Фабрис Дю Вельц / Fabrice Du Welz
В ролях: Амр Вакед, Рихард Заммель, Элис Тальони, Симон Абкарян, Жерар Ланвен, Филипп Наон, Джои Старр, Микаела Фишер, Джо Престиа, Мик Гулд
Описание:Bинсент Милиес несет службу в рядах Национальной полиции. Он является превосходным оружейником и первоклассным инструктором по стрельбе. Однажды, получается так, что карьера этого человека переворачивается. Когда он знакомится с Мило Карденом, в судьбе героя наступает череда различных перемен. Карден втягивает Винсента в спираль событий. Со временем Милиес будет втянут в жестокие и довольно-таки коварные войны между коллегами. Именно таким образом парню придется столкнуться с крестным отцом, командиром Люком Денардом, командиром Кристианом Чавесом и еще с огромным количеством личностей. В результате всего этого, наш главный персонаж уже в скором времени окажется в тупике, выйти из которого будет очень сложно…

Качество: HDRip
Контейнер: AVI
Видео: 720x304 (2.37:1), 24 fps, XviD build 50 ~1876 kbps , 0.36 bit/pixel
Аудио: 48 kHz, AC3 Dolby Digital, 3/2 (L,C,R,l,r) + LFE ch, ~448 kbps

MI

Общее
Полное имя : C:\Users\Вячеслав\Downloads\Colt.45.2014.P.HDRip.1400Mb.avi
Формат : AVI
Формат/Информация : Audio Video Interleave
Размер файла : 1,37 Гбайт
Продолжительность : 1 ч. 23 м.
Общий поток : 2334 Кбит/сек
Программа кодирования : VirtualDubMod 1.5.10.2 (build 2540/release)
Библиотека кодирования : VirtualDubMod build 2540/release
Видео
Идентификатор : 0
Формат : MPEG-4 Visual
Профиль формата : Advanced Simple@L5
Параметр BVOP формата : 1
Параметр QPel формата : Нет
Параметр GMC формата : Без точки перехода
Параметр матрицы формата : Default (MPEG)
Идентификатор кодека : XVID
Идентификатор кодека/Подсказка : XviD
Продолжительность : 1 ч. 23 м.
Битрейт : 1877 Кбит/сек
Ширина : 720 пикселей
Высота : 304 пикселя
Соотношение сторон : 2,35:1
Частота кадров : 24,000 кадра/сек
Цветовое пространство : YUV
Субдискретизация насыщенности : 4:2:0
Битовая глубина : 8 бит
Тип развёртки : Прогрессивная
Метод сжатия : С потерями
Бит/(Пиксели*Кадры) : 0.357
Размер потока : 1,10 Гбайт (80%)
Библиотека кодирования : XviD 1.2.1 (UTC 2008-12-04)
Аудио
Идентификатор : 1
Формат : AC-3
Формат/Информация : Audio Coding 3
Расширение режима : CM (complete main)
Параметр Endianness формата : Big
Идентификатор кодека : 2000
Продолжительность : 1 ч. 23 м.
Вид битрейта : Постоянный
Битрейт : 448 Кбит/сек
Каналы : 6 каналов
Расположение каналов : Front: L C R, Side: L R, LFE
Частота : 48,0 КГц
Битовая глубина : 16 бит
Метод сжатия : С потерями
Размер потока : 269 Мбайт (19%)
Выравнивание : Разделение по промежуткам
Продолжительность промежутка : 42 мс. (1,00 видеокадр)
Время предзагрузки промежутка : 500 мс.

Скриншоты

[Цитировать]



Показать сообщения:    

Текущее время: 07-Дек 19:25

Часовой пояс: UTC + 3


Вы не можете начинать темы
Вы не можете отвечать на сообщения
Вы не можете редактировать свои сообщения
Вы не можете удалять свои сообщения
Вы не можете голосовать в опросах
Вы не можете прикреплять файлы к сообщениям
Вы не можете скачивать файлы

!ВНИМАНИЕ!
Сайт не предоставляет электронные версии произведений, а занимается лишь коллекционированием и каталогизацией ссылок, присылаемых и публикуемых на форуме нашими читателями. Если вы являетесь правообладателем какого-либо представленного материала и не желаете, чтобы ссылка на него находилась в нашем каталоге, свяжитесь с нами, и мы незамедлительно удалим ее. Файлы для обмена на трекере предоставлены пользователями сайта, и администрация не несет ответственности за их содержание. Просьба не заливать файлы, защищенные авторскими правами, а также файлы нелегального содержания!