[ Today is free to download without increasing Download ]

DL-List and Torrent activity
7500 / 7500
Страна: Япония, США
Жанр: ужасы, триллер, детектив
Год выпуска: 2014
Продолжительность: 01:19:49
Перевод: Одноголосый закадровый Xixidok
Cубтитры: нет
Оригинальная аудиодорожка: нет
Режиссер: Такаши Шимицу / Takashi Shimizu
В ролях: Райан Квантен, Эми Смарт, Лесли Бибб, Джейми Чунг, Скаут Тейлор-Комптон, Никки Уилан, Джерри Феррара, Кристиан Серратос, Алекс Фрост, Рик Келли
Описание: Действующие лица фильма — группа пассажиров рейса Vista Pacific 7500, совершающего перелет через Тихий океан. Мерное и тоскливое течение времени во время полета внезапно нарушается, и герои сталкиваются с некой сверхъестественной силой, вносящей не самое приятное разнообразие в замкнутом пространстве.
Сэмпл: http://multi-up.com/1010685
Качество видео: HDRip (исходник не известен)
Формат видео: AVI
Видео: Xvid 640x352 23.98fps 1 085 Kbps
Аудио: MPEG Audio Layer 3 44100Hz stereo 192kbps


Format : AVI
Format/Info : Audio Video Interleave
File size : 734 MiB
Duration : 1h 19mn
Overall bit rate : 1 286 Kbps
Writing application : VirtualDubMod (build 2550/release)
Writing library : VirtualDubMod build 2550/release
ID : 0
Format : MPEG-4 Visual
Format profile : Advanced Simple@L5
Format settings, BVOP : Yes
Format settings, QPel : No
Format settings, GMC : No warppoints
Format settings, Matrix : Default (H.263)
Muxing mode : Packed bitstream
Codec ID : XVID
Codec ID/Hint : XviD
Duration : 1h 19mn
Bit rate : 1 085 Kbps
Width : 640 pixels
Height : 352 pixels
Display aspect ratio : 16:9
Frame rate : 23.976 fps
Resolution : 8 bits
Colorimetry : 4:2:0
Scan type : Progressive
Bits/(Pixel*Frame) : 0.201
Stream size : 619 MiB (84%)
Writing library : XviD 65
ID : 1
Format : MPEG Audio
Format version : Version 1
Format profile : Layer 3
Codec ID : 55
Codec ID/Hint : MP3
Duration : 1h 19mn
Bit rate mode : Constant
Bit rate : 192 Kbps
Channel(s) : 2 channels
Sampling rate : 44.1 KHz
Stream size : 110 MiB (15%)
Alignment : Split accross interleaves
Interleave, duration : 42 ms (1.00 video frame)
Interleave, preload duration : 500 ms

Скриншот c названием фильма



Display posts:    

Current time is: 24-Oct 01:06

All times are UTC + 3

You cannot post new topics in this forum
You cannot reply to topics in this forum
You cannot edit your posts in this forum
You cannot delete your posts in this forum
You cannot vote in polls in this forum
You cannot attach files in this forum
You cannot download files in this forum

The site does not give electronic versions of products, and is engaged only in a collecting and cataloguing of the references sent and published at a forum by our readers. If you are the legal owner of any submitted material and do not wish that the reference to it was in our catalogue, contact us and we shall immediately remove her. Files for an exchange on tracker are given by users of a site, and the administration does not bear the responsibility for their maintenance. The request to not fill in the files protected by copyrights, and also files of the illegal maintenance!