[ Сегодня идет свободное скачивание без начисления Download ]


Статистика раздачи
Нет
 
   
 
Top  
 
 
Однажды в Ростове
Год выпуска: 2012
Производство: ООО Продюсерский центр Сергея Жигунова
Жанр: драма, криминал
Продолжительность: ~ 00:45:00
Режиссёр: Константин Худяков
В ролях: Владимир Вдовиченков, Кирилл Плетнёв, Екатерина Олькина, Сергей Жигунов, Алёна Бабенко, Богдан Ступка, Виктор Раков, Екатерина Вуличенко, Владимир Юматов, Алексей Бардуков, Константин Лавроненко, Юрий Беляев, Михаил Евланов, Виталий Хаев, Екатерина Климова, Евгений Князев, Екатерина Никитина, Дмитрий Муляр, Александр Сирин, Анна Каменкова, Андрей Ильин, Екатерина Вилкова, Сергей Шеховцов, Карэн Бадалов, Сергей Тарамаев, Алексей Воробьёв, Анна Миклош, Сергей Петров, Алла Мещерякова, Наталья Заякина, Ксения Лаврова-Глинка, Денис Васильев, Екатерина Юдина, Владимир Сычёв, Владимир Тимофеев, Иван Суханов, Сергей Сосновский, Пётр Ступин, Сергей Лосев, Валерий Ненашев, Геннадий Храпунков, Николай Токарев, Павел Галич, Элина Вокалюк
Описание:
История о легендарной банде "фантомасов", в течение нескольких лет державших в страхе весь город, а также о расстреле голодного бунта в Новочеркасске и о последовавших вслед за этим событиях...

Сэмпл 1
Сэмпл 2
Качество: DVDRip-AVC [Исходник: (Спасибо vlaa8)]
Формат: MKV
Видео кодек: H.264
Аудио кодек: AC3
Видео: AVC (H.264), 704x560@1001x560 (16:9), 25.000 fps, 2112 kbps avg, 0.214 bit/pixel
Аудио: AC3, 48 kHz, 16 bits, 192 kbps, 2ch
Навигация по главам: есть

MI

Общее
Уникальный идентификатор : 238044277725440304012730387524149747430 (0xB315A9068BF8C087A32420F294029EE6)
Полное имя : I:\Video\Однажды.в.Ростове.2012.DVDRip-AVC.kvvk_2009\Однажды.в.Ростове.01.2012.DVDRip-AVC.kvvk_2009.mkv
Формат : Matroska
Версия формата : Version 2
Размер файла : 736 Мбайт
Продолжительность : 44 м.
Общий поток : 2303 Кбит/сек
Дата кодирования : UTC 2014-10-23 17:22:35
Программа кодирования : mkvmerge v3.4.0 ('Rapunzel') built on May 15 2010 09:38:20
Библиотека кодирования : libebml v0.8.0 + libmatroska v0.9.0
Видео
Идентификатор : 1
Формат : AVC
Формат/Информация : Advanced Video Codec
Профиль формата : High@L4.1
Параметр CABAC формата : Да
Параметр ReFrames формата : 11 кадров
Идентификатор кодека : V_MPEG4/ISO/AVC
Продолжительность : 44 м.
Битрейт : 2112 Кбит/сек
Ширина : 704 пикселя
Высота : 560 пикселей
Соотношение сторон : 16:9
Частота кадров : 25,000 кадров/сек
Цветовое пространство : YUV
Субдискретизация насыщенности : 4:2:0
Битовая глубина : 8 бит
Тип развёртки : Прогрессивная
Бит/(Пиксели*Кадры) : 0.214
Размер потока : 660 Мбайт (90%)
Библиотека кодирования : x264 core 142 r2431 ac76440
Настройки программы : cabac=1 / ref=11 / deblock=1:-2:-2 / analyse=0x3:0x113 / me=umh / subme=10 / psy=1 / psy_rd=1.00:0.15 / mixed_ref=1 / me_range=32 / chroma_me=1 / trellis=2 / 8x8dct=1 / cqm=0 / deadzone=21,11 / fast_pskip=1 / chroma_qp_offset=-3 / threads=6 / lookahead_threads=1 / sliced_threads=0 / nr=0 / decimate=0 / interlaced=0 / bluray_compat=0 / constrained_intra=0 / bframes=8 / b_pyramid=2 / b_adapt=2 / b_bias=0 / direct=3 / weightb=1 / open_gop=0 / weightp=2 / keyint=250 / keyint_min=25 / scenecut=40 / intra_refresh=0 / rc_lookahead=50 / rc=2pass / mbtree=0 / bitrate=2112 / ratetol=1.0 / qcomp=0.60 / qpmin=0 / qpmax=51 / qpstep=4 / cplxblur=20.0 / qblur=0.5 / vbv_maxrate=50000 / vbv_bufsize=62500 / nal_hrd=none / filler=0 / ip_ratio=1.40 / pb_ratio=1.30 / aq=1:0.90
Язык : English
Default : Нет
Forced : Нет
Аудио
Идентификатор : 2
Формат : AC-3
Формат/Информация : Audio Coding 3
Расширение режима : CM (complete main)
Идентификатор кодека : A_AC3
Продолжительность : 44 м.
Вид битрейта : Постоянный
Битрейт : 192 Кбит/сек
Каналы : 2 канала
Расположение каналов : Front: L R
Частота : 48,0 КГц
Битовая глубина : 16 бит
Метод сжатия : С потерями
Размер потока : 61,4 Мбайт (8%)
Заголовок : AC3 2ch @ 192kbps
Язык : Russian
Default : Да
Forced : Нет
Меню
00:00:00.000 : :00:00:00.000
00:08:52.480 : :00:08:52.480
00:23:34.440 : :00:23:34.440
00:33:08.640 : :00:33:08.640
00:44:40.440 : :00:44:40.440

Сравнение

Сравнение c
http://screenshotcomparison.com/comparison/98773/picture:2

Скриншоты

[Цитировать]



Показать сообщения:    

Текущее время: 09-Дек 18:33

Часовой пояс: UTC + 3


Вы не можете начинать темы
Вы не можете отвечать на сообщения
Вы не можете редактировать свои сообщения
Вы не можете удалять свои сообщения
Вы не можете голосовать в опросах
Вы не можете прикреплять файлы к сообщениям
Вы не можете скачивать файлы

!ВНИМАНИЕ!
Сайт не предоставляет электронные версии произведений, а занимается лишь коллекционированием и каталогизацией ссылок, присылаемых и публикуемых на форуме нашими читателями. Если вы являетесь правообладателем какого-либо представленного материала и не желаете, чтобы ссылка на него находилась в нашем каталоге, свяжитесь с нами, и мы незамедлительно удалим ее. Файлы для обмена на трекере предоставлены пользователями сайта, и администрация не несет ответственности за их содержание. Просьба не заливать файлы, защищенные авторскими правами, а также файлы нелегального содержания!