[ Сегодня идет свободное скачивание без начисления Download ]


Статистика раздачи
Нет
 
   
 
Top  
 
 
-Большие глаза / Big Eyes (2014) BDRip | iTunes Russia
«Эта история шокировала мир»
- Производство: США, Канада / Weinstein Company, The, Silverwood Films, Tim Burton Productions
Жанр: Драма, Биография
Режиссер: Тим Бёртон
Актеры: Эми Адамс, Кристоф Вальц, Кристен Риттер, Джейсон Шварцман, Дэнни Хьюстон, Теренс Стэмп, Джон Полито, Элизабетта Фантоне, Джеймс Саито, Гуидо Фурлани.-Описание фильма:
Яркая и цветущая Америка 50-х. В сочных красках Сан-Франциско зарождается то, что разрушит традиционный взгляд на искусство и бесповоротно изменит то, как выглядит наша жизнь. Появившийся из ниоткуда художник Уолтер Кин придумал поп-арт. Его необычные картины, изображающие трогательных детей с огромными глазами, произвели настоящий фурор и буквально заполонили весь мир. Их печатают на календарях, открытках, домохозяйки щеголяют в фартуках с их изображением. Уолтер становится королем современного искусства, одним из самых известных арт-деятелей планеты.
Но на пике славы художника его скромная супруга Маргарет вдруг утверждает, что Уолтер — мошенник, и именно она — автор знаменитых картин. Неожиданно открываются шокирующие подробности жизни четы Кин. Весь мир замер в ожидании ответа на вопрос: кто же все-таки тот гений, чьи смелые и оригинальные картины украшают теперь каждую гостиную от Парижа до Аляски?-
Дата мировой премьеры: 13 ноября 2014
Дата российской премьеры: 8 января 2015, «Централ Партнершип Classic», «All Media»-Релиз группа: New-Team
Автор релиза: Yarmak23-Продолжительность: 01:45:44.338
Качество видео: BDRip | исх. Big.Eyes.2014.1080p.BluRay.AVC.DTS-HD.MA.5.1-HDAccess |
Перевод: Дублированный |iTunes Russia|
Сбтитры: Отсутствуют
Видео: 704x400 (16:9), 23.976 fps, XviD 65 ~1567 kbps avg, 0.232 bit/pixel
Аудио: 48 kHz, AC3 Dolby Digital, 3/2 (L,C,R,l,r) + LFE ch, ~384.00 kbps Constant |Русский / Дубляж, iTunes Russia|
Скачать: Сэмпл

MediaInfo

General
Complete name : Bolshie.Glaza.2014.D.ituns.BDRip.1.45GB_New-team_by_Yarmak23.avi
Format : AVI
Format/Info : Audio Video Interleave
File size : 1.45 GiB
Duration : 1h 45mn
Overall bit rate : 1 960 Kbps
Writing application : VirtualDubMod 1.5.10.3 | www.virtualdub-fr.org || (build 2550/release)
Writing library : VirtualDubMod build 2550/release
Video
ID : 0
Format : MPEG-4 Visual
Format profile : Advanced [email protected]
Format settings, BVOP : 1
Format settings, QPel : No
Format settings, GMC : No warppoints
Format settings, Matrix : Custom
Codec ID : XVID
Codec ID/Hint : XviD
Duration : 1h 45mn
Bit rate : 1 567 Kbps
Width : 704 pixels
Height : 400 pixels
Display aspect ratio : 16:9
Frame rate : 23.976 fps
Color space : YUV
Chroma subsampling : 4:2:0
Bit depth : 8 bits
Scan type : Progressive
Compression mode : Lossy
Bits/(Pixel*Frame) : 0.232
Stream size : 1.16 GiB (80%)
Writing library : XviD 65
Audio
ID : 1
Format : AC-3
Format/Info : Audio Coding 3
Mode extension : CM (complete main)
Format settings, Endianness : Big
Codec ID : 2000
Duration : 1h 45mn
Bit rate mode : Constant
Bit rate : 384 Kbps
Channel(s) : 6 channels
Channel positions : Front: L C R, Side: L R, LFE
Sampling rate : 48.0 KHz
Bit depth : 16 bits
Compression mode : Lossy
Stream size : 290 MiB (20%)
Alignment : Split accross interleaves
Interleave, duration : 42 ms (1.00 video frame)
Interleave, preload duration : 500 ms

Скриншоты

Скриншоты:

[Цитировать]

Топик был перенесен из форума Новинки кинопроката в форум Драма
Henkok



Показать сообщения:    

Текущее время: 05-Дек 23:47

Часовой пояс: UTC + 3


Вы не можете начинать темы
Вы не можете отвечать на сообщения
Вы не можете редактировать свои сообщения
Вы не можете удалять свои сообщения
Вы не можете голосовать в опросах
Вы не можете прикреплять файлы к сообщениям
Вы не можете скачивать файлы

!ВНИМАНИЕ!
Сайт не предоставляет электронные версии произведений, а занимается лишь коллекционированием и каталогизацией ссылок, присылаемых и публикуемых на форуме нашими читателями. Если вы являетесь правообладателем какого-либо представленного материала и не желаете, чтобы ссылка на него находилась в нашем каталоге, свяжитесь с нами, и мы незамедлительно удалим ее. Файлы для обмена на трекере предоставлены пользователями сайта, и администрация не несет ответственности за их содержание. Просьба не заливать файлы, защищенные авторскими правами, а также файлы нелегального содержания!