[ Сегодня идет свободное скачивание без начисления Download ]


Статистика раздачи
Нет
 
   
 
Top  
 
 
Притворись моей женой / Just Go with It«Иногда, чтобы влюбиться, нужно... жениться»- Страна: США
Жанр: мелодрама, комедия
Год выпуска: 2011
Продолжительность: 01:56:29-Перевод №1: Профессиональный (полное дублирование)
Перевод №2: Профессиональный (полное дублирование) Ukrainian
Оригинальная аудиодорожка: English
Cубтитры: Russian [Full,Forced], English - отдельно в раздаче-Режиссер: Дэннис Дуган / Dennis Dugan
В ролях: Адам Сэндлер, Дженнифер Энистон, Николь Кидман, Ник Свардсон, Бруклин Декер, Бэйли Мэдисон, Дэйв Мэтьюз, Кевин Нилон, Рэйчел Дрэч, Аллен Коверт.-Описание: Главный герой Дэнни встретил Палмер, и, чтобы произвести впечатление, рассказал о своей несуществующей жене и тяготах семейной жизни. Вместо ожидаемого сочувствия, Палмер хочет познакомиться с его женой, и Дэнни необходимо срочно придумать, как выпутаться из столь интересного положения. К счастью, у него есть знакомая коллега Кэтрин, обаятельная и с детьми, которые и сыграют на время роль его семьи.-IMDB | КиноПоиск | Сэмпл-Качество видео: BDRip | исх.
Формат видео: AVI-Видео: 720x384 (1.88:1), 23.976 fps, XviD build 73 ~2229 kbps avg, 0.34 bit/pixel
Аудио №1: 48 kHz, AC3 Dolby Digital, 3/2 (L,C,R,l,r) + LFE ch, ~448 kbps | Профессиональный (полное дублирование)
Аудио №2: 48 kHz, AC3 Dolby Digital, 3/2 (L,C,R,l,r) + LFE ch, ~448 kbps | Профессиональный (полное дублирование) Ukrainian
Аудио №3: 48 kHz, AC3 Dolby Digital, 3/2 (L,C,R,l,r) + LFE ch, ~448 kbps | English-

MediaInfo

General
Complete name : D:\Фильмы\Рипы\Just.Go.with.It.2011.BDRip.by Fredd Kruger\Just.Go.with.It.2011.BDRip.by Fredd Kruger.avi
Format : AVI
Format/Info : Audio Video Interleave
File size : 2.92 GiB
Duration : 1h 56mn
Overall bit rate : 3 592 Kbps
Writing application : VirtualDubMod 1.5.10.3 | www.virtualdub-fr.org || (build 2550/release)
Writing library : VirtualDubMod build 2550/release
Video
ID : 0
Format : MPEG-4 Visual
Format profile : Advanced [email protected]
Format settings, BVOP : 1
Format settings, QPel : No
Format settings, GMC : No warppoints
Format settings, Matrix : Custom
Codec ID : XVID
Codec ID/Hint : XviD
Duration : 1h 56mn
Bit rate : 2 230 Kbps
Width : 720 pixels
Height : 384 pixels
Display aspect ratio : 1.85:1
Frame rate : 23.976 fps
Color space : YUV
Chroma subsampling : 4:2:0
Bit depth : 8 bits
Scan type : Progressive
Compression mode : Lossy
Bits/(Pixel*Frame) : 0.336
Stream size : 1.81 GiB (62%)
Writing library : XviD 73
Audio #1
ID : 1
Format : AC-3
Format/Info : Audio Coding 3
Mode extension : CM (complete main)
Format settings, Endianness : Big
Codec ID : 2000
Duration : 1h 56mn
Bit rate mode : Constant
Bit rate : 448 Kbps
Channel count : 6 channels
Channel positions : Front: L C R, Side: L R, LFE
Sampling rate : 48.0 KHz
Bit depth : 16 bits
Compression mode : Lossy
Stream size : 373 MiB (12%)
Alignment : Split accross interleaves
Interleave, duration : 42 ms (1.00 video frame)
Interleave, preload duration : 500 ms
Audio #2
ID : 2
Format : AC-3
Format/Info : Audio Coding 3
Mode extension : CM (complete main)
Format settings, Endianness : Big
Codec ID : 2000
Duration : 1h 56mn
Bit rate mode : Constant
Bit rate : 448 Kbps
Channel count : 6 channels
Channel positions : Front: L C R, Side: L R, LFE
Sampling rate : 48.0 KHz
Bit depth : 16 bits
Compression mode : Lossy
Stream size : 373 MiB (12%)
Alignment : Split accross interleaves
Interleave, duration : 42 ms (1.00 video frame)
Interleave, preload duration : 500 ms
Audio #3
ID : 3
Format : AC-3
Format/Info : Audio Coding 3
Mode extension : CM (complete main)
Format settings, Endianness : Big
Codec ID : 2000
Duration : 1h 56mn
Bit rate mode : Constant
Bit rate : 448 Kbps
Channel count : 6 channels
Channel positions : Front: L C R, Side: L R, LFE
Sampling rate : 48.0 KHz
Bit depth : 16 bits
Compression mode : Lossy
Stream size : 373 MiB (12%)
Alignment : Split accross interleaves
Interleave, duration : 42 ms (1.00 video frame)
Interleave, preload duration : 500 ms

[Цитировать]



Показать сообщения:    

Текущее время: 04-Дек 02:54

Часовой пояс: UTC + 3


Вы не можете начинать темы
Вы не можете отвечать на сообщения
Вы не можете редактировать свои сообщения
Вы не можете удалять свои сообщения
Вы не можете голосовать в опросах
Вы не можете прикреплять файлы к сообщениям
Вы не можете скачивать файлы

!ВНИМАНИЕ!
Сайт не предоставляет электронные версии произведений, а занимается лишь коллекционированием и каталогизацией ссылок, присылаемых и публикуемых на форуме нашими читателями. Если вы являетесь правообладателем какого-либо представленного материала и не желаете, чтобы ссылка на него находилась в нашем каталоге, свяжитесь с нами, и мы незамедлительно удалим ее. Файлы для обмена на трекере предоставлены пользователями сайта, и администрация не несет ответственности за их содержание. Просьба не заливать файлы, защищенные авторскими правами, а также файлы нелегального содержания!