[ Сегодня идет свободное скачивание без начисления Download ]


Статистика раздачи
Нет
 
   
 
Top  
 
 
Отражение Год выпуска: 2011
Производство: Россия, Компания "ОДА-Фильм"
Жанр: Детективная мелодрама
Продолжительность: 12 х 00:48:57
Режиссёр: Александр Щурихин, Сергей Быстрицкий, Сергей Данелян
В ролях: Ольга Погодина, Поля Полякова, Дмитрий Гудочкин, Александр Ермаков, Елена Ковальчук, Евгений Коряковский, Ольга Кузьмина, Андрей Биланов, Елена Котельникова, Надежда Бахтина, Юрий Назаров, Людмила Гаврилова, Юрий Чернов, Прохор Зикора, Александр Новиков, Ирина Шведова, Евгений Воловенко, Александра Живова, Вадим Гаман, Сережа Панин, Мириам Комиссарова, Ольга Юрасова и другие...
Описание:
Женская тюрьма. Круглова Елизавета уже седьмой год отбывает наказание. В прошлом - майор милиции - она в первые годы перестройки организовала банду из сотрудников органов внутренних дел. Пять лет "оборотни в погонах" держали в страхе Приморский край и прилегающие к нему районы. Потом их взяли, "мамка" Елизавета Круглова, получила 12 лет. Ее двухлетняя дочь Полина оказалась в детдоме. Свою мать девочка почти не помнит.… За примерное поведение начальник тюрьмы подает документы Елизаветы на УДО. За несколько месяцев до выхода на свободу Елизавета падает в обморок. Диагноз тюремного доктора не оставляет сомнения: у нее рак головного мозга. Женщина понимает - ей осталось жить всего несколько месяцев. В это время на зону поступает осужденная Дарья Степанова, следователь по особо важным делам. Три года она пыталась поймать серийного убийцу Анатолия. В итоге - сама оказалась за решеткой за превышение служебных полномочий. Лизе приходит в голову дерзкий план. Она предлагает Даше с помощью пластического хирурга Вали поменяться лицами и, соответственно, жизнями. Лиза с лицом Даши умрет, а Даша выйдет вместо "мамки" Лизы на свободу, воспользуется ее финансовым могуществом и станет матерью Полине. Перед Дашей встает серьезный выбор: отказаться от своих убеждений и собственной семьи или довести дело преступника до конца, любой ценой…

Сэмпл: http://multi-up.com/885204/
Качество: SATRip
Формат: AVI
Видео кодек: XviD
Аудио кодек: MP3
Видео: 720x384 (1.88:1), 25 fps, XviD MPEG-4 ~1371 kbps avg, 0.20 bit/pixel
Аудио: 48 kHz, MPEG Layer 3, 2 ch, ~192.00 kbps avg

MI

Общее
Полное имя : D:\Торренты\Мои\Otrazhenie.2011.SATRip.KinozalSAT\Otrazhenie.01.iz.12.2011.SATRip.KinozalSAT.avi
Формат : AVI
Формат/Информация : Audio Video Interleave
Размер файла : 550 Мбайт
Продолжительность : 48 м.
Общий поток : 1571 Кбит/сек
Программа кодирования : VirtualDubMod 1.5.4.1 (build 2178/release)
Библиотека кодирования : VirtualDubMod build 2178/release
Видео
Идентификатор : 0
Формат : MPEG-4 Visual
Профиль формата : Advanced Simple@L5
Параметр BVOP формата : 1
Параметр QPel формата : Нет
Параметр GMC формата : Без точки перехода
Параметр матрицы формата : Выборочная
Идентификатор кодека : XVID
Идентификатор кодека/Подсказка : XviD
Продолжительность : 48 м.
Битрейт : 1371 Кбит/сек
Ширина : 720 пикселей
Высота : 384 пикселя
Соотношение сторон : 1,85:1
Частота кадров : 25,000 кадров/сек
Цветовое пространство : YUV
Субдискретизация насыщенности : 4:2:0
Битовая глубина : 8 бит
Тип развёртки : Прогрессивная
Метод сжатия : С потерями
Бит/(Пиксели*Кадры) : 0.198
Размер потока : 480 Мбайт (87%)
Библиотека кодирования : XviD 64
Аудио
Идентификатор : 1
Формат : MPEG Audio
Версия формата : Version 1
Профиль формата : Layer 3
Режим : Joint stereo
Расширение режима : MS Stereo
Идентификатор кодека : 55
Идентификатор кодека/Подсказка : MP3
Продолжительность : 48 м.
Вид битрейта : Постоянный
Битрейт : 192 Кбит/сек
Каналы : 2 канала
Частота : 48,0 КГц
Метод сжатия : С потерями
Размер потока : 67,2 Мбайт (12%)
Выравнивание : Соединение по промежуткам
Продолжительность промежутка : 80 мс. (2,00 видеокадра)
Время предзагрузки промежутка : 504 мс.
Библиотека кодирования : LAME3.98r
Настройки программы : -m j -V 4 -q 2 -lowpass 18.6 -b 192

Скриншоты

[Цитировать]



Показать сообщения:    

Текущее время: 10-Дек 04:11

Часовой пояс: UTC + 3


Вы не можете начинать темы
Вы не можете отвечать на сообщения
Вы не можете редактировать свои сообщения
Вы не можете удалять свои сообщения
Вы не можете голосовать в опросах
Вы не можете прикреплять файлы к сообщениям
Вы не можете скачивать файлы

!ВНИМАНИЕ!
Сайт не предоставляет электронные версии произведений, а занимается лишь коллекционированием и каталогизацией ссылок, присылаемых и публикуемых на форуме нашими читателями. Если вы являетесь правообладателем какого-либо представленного материала и не желаете, чтобы ссылка на него находилась в нашем каталоге, свяжитесь с нами, и мы незамедлительно удалим ее. Файлы для обмена на трекере предоставлены пользователями сайта, и администрация не несет ответственности за их содержание. Просьба не заливать файлы, защищенные авторскими правами, а также файлы нелегального содержания!