[ Сегодня идет свободное скачивание без начисления Download ]


Статистика раздачи
Нет
 
   
 
Top  
 
 
Однажды в Ростове
Год выпуска: 2012
Производство: ООО Продюсерский центр Сергея Жигунова
Жанр: Драма
Продолжительность: ~0:45:00 серия
Субтитры: нет
Режиссёр: Константин Худяков
В ролях: Сергей Жигунов, Владимир Вдовиченков, Виктор Раков, Алёна Бабенко, Кирилл Плетнев, Виталий Хаев, Михаил Евланов, Евгений Князев, Андрей Ильин, Константин Лавроненко, Сергей Тарамаев, Екатерина Климова, Юрий Беляев, Екатерина Никитина, Богдан Ступка, Екатерина Вуличенко, Александр Пороховщиков, Алексей Бардуков, Сергей Шеховцов, Сергей Петров (II), Александр Андриенко, Денис Васильев, Алексей Воробьёв, Анна Гуляренко, Юрис Лауциньш, Сергей Беляев, Андрей Лебедев, Анна Миклош, Лидия Милюзина, Владимир Сычев, Николай Токарев, Егор Харламов, Екатерина Олькина, Наталия Трубникова
Описание: Это история о легендарной банде "фантомасов" Толстопятовых, державших в 60-е в страхе весь город, о расстреле голодного бунта в Новочеркасске и его последствиях для страны.
Все раздачи сериала:

Качество: HDTV 1080i
Формат: TS
Видео кодек: H.264
Аудио кодек: AC-3/ MP2
Видео: MPEG4 Video (H264) 1920x1080, ~ 6936 Кбит/сек, 25.00fps 0.134 bit/pixel
Аудио#1: AC-3, 6 канала, 48,0 КГц, ~384 kbps
Аудио#2: MP2, 2 канала, 48,0 КГц, ~192 kbps
Сторонней рекламы нет!

MediaInfo

ОбщееИдентификатор : 1 (0x1)Полное имя : F:\Odnajdy.v.Rostove.HDTV(1080i).GeneralFilm\Odnajdy.v.Rostove.01.HDTV(1080i).GeneralFilm.tsФормат : MPEG-TSРазмер файла : 2,40 ГбайтПродолжительность : 43 м.Общий поток : 7909 Кбит/сек
ВидеоИдентификатор : 4121 (0x1019)Идентификатор меню : 80 (0x50)Формат : AVCФормат/Информация : Advanced Video CodecПрофиль формата : Main@L4.0Параметр CABAC формата : ДаПараметр ReFrames формата : 3 кадраИдентификатор кодека : 27Продолжительность : 43 м.Битрейт : 6936 Кбит/секШирина : 1920 пикс.Высота : 1080 пикс.Соотношение сторон : 16:9Частота кадров : 25,000 кадр/секСтандарт вещания : ComponentЦветовое пространство : YUVПодвыборка цветности : 4:2:0Битовая глубина : 8 битТип развёртки : ЧересстрочнаяПорядок развёртки : Верхнее поле первоеБит/(Пиксели*Кадры) : 0.134Размер потока : 2,10 Гбайт (88%)Основные цвета : BT.709-5, BT.1361, IEC 61966-2-4, SMPTE RP177Характеристики трансфера : BT.709-5, BT.1361Коэффициенты матрицы : BT.709-5, BT.1361, IEC 61966-2-4 709, SMPTE RP177
Аудио #1Идентификатор : 4124 (0x101C)Идентификатор меню : 80 (0x50)Формат : AC-3Формат/Информация : Audio Coding 3Расширение режима : CM (complete main)Идентификатор кодека : 6Продолжительность : 43 м.Вид битрейта : ПостоянныйБитрейт : 384 Кбит/секКаналы : 6 каналовРасположение каналов : Front: L C R, Side: L R, LFEЧастота : 48,0 КГцБитовая глубина : 16 битМетод сжатия : С потерямиЗадержка видео : -120 мс.Размер потока : 119 Мбайт (5%)Язык : Russian
Аудио #2Идентификатор : 4125 (0x101D)Идентификатор меню : 80 (0x50)Формат : MPEG AudioВерсия формата : Version 1Профиль формата : Layer 2Идентификатор кодека : 3Продолжительность : 43 м.Вид битрейта : ПостоянныйБитрейт : 192 Кбит/секКаналы : 2 каналаЧастота : 48,0 КГцМетод сжатия : С потерямиЗадержка видео : -120 мс.Размер потока : 59,6 Мбайт (2%)Язык : Russian

Внимание ! Раздача ведётся путём добавления новых серий

Внимание! Раздача ведётся путём добавления новых серий; при каждом добавлении создётся новый торрент. Чтобы начать докачку новой серии, пользователям необходимо сделать следующее:
(1) остановить скачивание,
(2) удалить старый торрент у себя из клиента (старые серии удалять не надо),
(3) скачать новый торрент и запустить его у себя в клиенте вместо старого, при этом указать клиенту путь в старую папку куда и должно происходить скачивание новых серий.
Ваш клиент при этом должен произвести хеширование (проверку) старой папки (если не производит сам - помогите ему сделать это), и будет докачивать только те серии которых у вас ещё нет. Старые серии при этом не удаляются, а продолжают раздаваться!
Eсли вы уже удалили старые серии, то предотвратить повторную закачку старых серий можно, отжав галочку в соответсвующих местах при запуске нового торрента. По возможности, желательно не удалять старые серии как можно дольше чтобы релизёр не столько продолжал раздавать старые серии, а смог сконцентрироваться на новых.
ВНИМАНИЕ! ТОРРЕНТ ПЕРЕЗАЛИТ! ДОБАВЛЕНА 7-ая - 8-ая СЕРИИ!

Скриншоты

[Цитировать]



Показать сообщения:    

Текущее время: 08-Дек 12:50

Часовой пояс: UTC + 3


Вы не можете начинать темы
Вы не можете отвечать на сообщения
Вы не можете редактировать свои сообщения
Вы не можете удалять свои сообщения
Вы не можете голосовать в опросах
Вы не можете прикреплять файлы к сообщениям
Вы не можете скачивать файлы

!ВНИМАНИЕ!
Сайт не предоставляет электронные версии произведений, а занимается лишь коллекционированием и каталогизацией ссылок, присылаемых и публикуемых на форуме нашими читателями. Если вы являетесь правообладателем какого-либо представленного материала и не желаете, чтобы ссылка на него находилась в нашем каталоге, свяжитесь с нами, и мы незамедлительно удалим ее. Файлы для обмена на трекере предоставлены пользователями сайта, и администрация не несет ответственности за их содержание. Просьба не заливать файлы, защищенные авторскими правами, а также файлы нелегального содержания!