[ Сегодня идет свободное скачивание без начисления Download ]


Статистика раздачи
Нет
 
   
 
Top  
 
 
Личная жизнь следователя Савельева / Кордон следователя Савельева Год выпуска: 2012
Производство: «Пирамида», Одесская киностуди
Жанр: детектив, драма
Продолжительность: 00:50:00
Режиссёр: Сергей Крутин
Субтитры: Нет
В ролях: Дмитрий Марьянов, Нонна Гришаева, Михаил Досенко, Любава Грешнова, Юрий Беляев, Валерий Легин, Денис Фалюта, Екатерина Кистень, Игорь Салимонов, Игорь Гнездилов, Александр Андриенко, Михаил Жигалов, Любовь Толкалина, Ада Роговцева, Евгений Ефремов, Александр Суворов (III), Сергей Ярый, Наталья Бузько, Валентина Прокофьева, Владимир Лилицкий, Александр Онищенко, Александр Станкевич, Елена Турбал, Злата Швец-Скальская, Лариса Коршунова, Сергей Фролов (III), Алёна Колесниченко, Ольга Радчук, Софья Письман, Борис Георгиевский, Александр Данильченко, Инна Капинос, Екатерина Порубель, Михаил Тарабукин, Ирина Токарчук, Геннадий Скарга, Леонид Анисимов, Игорь Славинский, Жанна Климова, Леся Самаева, Сергей Мельник, Александр Постоленко, Игорь Рубашкин, Валерий Швец, Виктория Любицкая, Владимир Миняйло, Олег Шевчук, Василий Остафийчук, Андрей Мирошниченко (II), Юрий Росстальной, Александр Бойко, Богдан Паршаков, Сергей Сипливый, Владимир Горянский, Римма Зюбина, Ярослав Белый, Евгения Гладий, Олег Примогенов, Андрей Бута, Даниил Спиваковский, Евгений Данчевский, Светлана Бельская, Александр Чевычелов, Сергей Загребнев, Людмила Гаврилова, Наталья Позднякова, Константин Глушков, Михаил Стародубов, Иван Косичкин, Юлия Гуль
Описание: Следователь по особо важным делам Савельев решает выйти в отставку. Начальник искусственно затягивает процесс подписания рапорта, ведь Савельев не только его друг и классный сыщик, но и настоящий профессионал. Савельев, уроженец провинции, вдруг осознаёт, что проживание в мегаполисе уже ничего не даёт ему в отношении интереса к жизни. Конечно, повлияли на его решение и взаимоотношения с женой. Савельев год, как не живет с женой, не оформив развода...
Савельев настаивает на своей отставке и уезжает на родину, в районный город Степановск. Здесь от покойных родителей осталась квартира. Но главное, что у Савельева есть постоянная возможность ездить на лесной кордон, названный в его честь, жить и дышать в лесной глуши.
Но к счастью, или несчастью, профессия и высокая репутация не оставляют Савельева в покое. Его иногда привлекает к расследованиям местный прокурор, его однокашник – Черанёв.
События фильма происходят то в Москве, то в Степановске. Савельев мечется, переживает. Но свое основное дело делает высоко профессионально.


Качество: HDTVRip
Формат: AVI
Видео кодек: XviD
Аудио кодек: MP3
Видео: Xvid, 720x400, 25fps, 1541kbps,Bits/Pixel 0.214
Аудио: MP3 48000Hz, stereo, 192kbps,2 ch

MI

General
Complete name : C:\Кордон следователя Савельева\01 серия.avi
Format : AVI
Format/Info : Audio Video Interleave
File size : 619 MiB
Duration : 49mn 37s
Overall bit rate : 1 743 Kbps
Writing application : VirtualDubMod 1.5.10.3 | www.virtualdub-fr.org || (build 2550/release)
Writing library : VirtualDubMod build 2550/release
Video
ID : 0
Format : MPEG-4 Visual
Format profile : Advanced [email protected]
Format settings, BVOP : Yes
Format settings, QPel : No
Format settings, GMC : No warppoints
Format settings, Matrix : Default (MPEG)
Codec ID : XVID
Codec ID/Hint : XviD
Duration : 49mn 37s
Bit rate : 1 542 Kbps
Width : 720 pixels
Height : 400 pixels
Display aspect ratio : 16:9
Frame rate : 25.000 fps
Color space : YUV
Chroma subsampling : 4:2:0
Bit depth : 8 bits
Scan type : Progressive
Compression mode : Lossy
Bits/(Pixel*Frame) : 0.214
Stream size : 547 MiB (88%)
Writing library : XviD 73
Audio
ID : 1
Format : MPEG Audio
Format version : Version 1
Format profile : Layer 3
Codec ID : 55
Codec ID/Hint : MP3
Duration : 49mn 37s
Bit rate mode : Constant
Bit rate : 192 Kbps
Channel(s) : 2 channels
Sampling rate : 48.0 KHz
Compression mode : Lossy
Stream size : 68.2 MiB (11%)
Alignment : Aligned on interleaves
Interleave, duration : 40 ms (1.00 video frame)
Interleave, preload duration : 504 ms
Writing library : LAME3.99r
Encoding settings : -m s -V 4 -q 0 -lowpass 18.6 -b 192

Скриншоты

Внимание! Раздача ведётся путём добавления новых серий

Внимание! Раздача ведётся путём добавления новых серий; при каждом добавлении создаётся новый торрент.
Чтобы начать докачку новой серии, пользователям необходимо сделать следующее:
1. Остановить скачивание;
2. Удалить старый торрент у себя из клиента (старые серии удалять не надо);
3. Скачать новый торрент и запустить его у себя в клиенте вместо старого, при этом указать клиенту путь в старую папку куда и должно происходить скачивание новых серий. Ваш клиент при этом должен произвести хеширование (проверку) старой папки и будет докачивать только те серии, которых у вас ещё нет. Старые серии при этом не удаляются, а продолжают раздаваться! Eсли вы уже удалили старые серии, то предотвратить повторную закачку старых серий можно, отжав галочку в соответствующих местах при запуске нового торрента.

[Цитировать]



Показать сообщения:    

Текущее время: 05-Дек 15:38

Часовой пояс: UTC + 3


Вы не можете начинать темы
Вы не можете отвечать на сообщения
Вы не можете редактировать свои сообщения
Вы не можете удалять свои сообщения
Вы не можете голосовать в опросах
Вы не можете прикреплять файлы к сообщениям
Вы не можете скачивать файлы

!ВНИМАНИЕ!
Сайт не предоставляет электронные версии произведений, а занимается лишь коллекционированием и каталогизацией ссылок, присылаемых и публикуемых на форуме нашими читателями. Если вы являетесь правообладателем какого-либо представленного материала и не желаете, чтобы ссылка на него находилась в нашем каталоге, свяжитесь с нами, и мы незамедлительно удалим ее. Файлы для обмена на трекере предоставлены пользователями сайта, и администрация не несет ответственности за их содержание. Просьба не заливать файлы, защищенные авторскими правами, а также файлы нелегального содержания!