[ Сегодня идет свободное скачивание без начисления Download ]


Статистика раздачи
Нет
 
   
 
Top  
 
 
Универ. Новая общага
Год выпуска: 2014
Производство: Россия, ТНТ, "Комеди Клаб Продакшн"
Жанр: Комедия, ситком
Продолжительность: ~ 00:24:00
Субтитры: Нет
Режиссёр: Константин Смирнов, Максим Зыков
В ролях: Анастасия Иванова, Арарат Кещян, Александр Стекольников, Станислав Ярушин, Анна Кузина, Настасья Самбурская, Анна Хилькевич, Владимир Фекленко, Елена Валюшкина, Андрей Лебедев, Сергей Пиоро, Сергей Рост, Гарик Бульдог Харламов, Тимур Батрутдинов
Описание: В этом сезоне к Яне Семакиной из Челябинска приехала младшая сестра – 19-летняя Юля (Анастасия Иванова). Девушка поступила на платное отделение факультета дизайна. А так как с коммерческого не выгоняют, то онабудет наслаждаться жизнью! Юля – полная противоположность Яне. Она сексапильная, любит пофлиртовать и погулять, – так описывает «сестричку» Анна Кузина. – Очень остроумная, колкая и вместе с тем женственная. Кошечка такая. Семакина-младшая – очень спорный персонаж, – подтверждает Анастасия Иванова. – На первый взгляд она очень хорошая, обаятельная, привлекательная. А на самом деле – хитрая! И делает только то, что ей нужно.
Качество: WEBRip
Формат: AVI
Видео кодек: XviD
Аудио кодек: MP3
Видео: XviD, 720x400 (16:9), ~ 1833 Кбит/с, 25 кадр/с
Аудио: Русский, MP3, 48000 Гц, 128 Кбит/с, 2 канала (Стерео)

Автор рипа - ivandubskoj

MI

General
Complete name : Univer.Novaya.obschaga.s07.e01.WEB-DLRip.avi
Format : AVI
Format/Info : Audio Video Interleave
File size : 350 MiB
Duration : 24mn 51s
Overall bit rate : 1 971 Kbps
Writing application : VirtualDubMod 1.5.10.3 | www.virtualdub-fr.org || (build 2550/release)
Writing library : VirtualDubMod build 2550/release
Copyright : rip by ivandubskoj
Video
ID : 0
Format : MPEG-4 Visual
Format profile : Advanced Simple@L5
Format settings, BVOP : 1
Format settings, QPel : No
Format settings, GMC : No warppoints
Format settings, Matrix : Custom
Codec ID : XVID
Codec ID/Hint : XviD
Duration : 24mn 51s
Bit rate : 1 833 Kbps
Width : 720 pixels
Height : 400 pixels
Display aspect ratio : 16:9
Frame rate : 25.000 fps
Color space : YUV
Chroma subsampling : 4:2:0
Bit depth : 8 bits
Scan type : Progressive
Compression mode : Lossy
Bits/(Pixel*Frame) : 0.255
Stream size : 326 MiB (93%)
Writing library : XviD 73
Audio
ID : 1
Format : MPEG Audio
Format version : Version 1
Format profile : Layer 3
Codec ID : 55
Codec ID/Hint : MP3
Duration : 24mn 51s
Bit rate mode : Constant
Bit rate : 128 Kbps
Channel(s) : 2 channels
Sampling rate : 48.0 KHz
Compression mode : Lossy
Stream size : 22.8 MiB (6%)
Alignment : Aligned on interleaves
Interleave, duration : 40 ms (1.00 video frame)
Interleave, preload duration : 504 ms
Writing library : LAME3.99r
Encoding settings : -m s -V 4 -q 0 -lowpass 17 -b 128

Скриншоты

[Цитировать]



Показать сообщения:    

Текущее время: 07-Дек 23:11

Часовой пояс: UTC + 3


Вы не можете начинать темы
Вы не можете отвечать на сообщения
Вы не можете редактировать свои сообщения
Вы не можете удалять свои сообщения
Вы не можете голосовать в опросах
Вы не можете прикреплять файлы к сообщениям
Вы не можете скачивать файлы

!ВНИМАНИЕ!
Сайт не предоставляет электронные версии произведений, а занимается лишь коллекционированием и каталогизацией ссылок, присылаемых и публикуемых на форуме нашими читателями. Если вы являетесь правообладателем какого-либо представленного материала и не желаете, чтобы ссылка на него находилась в нашем каталоге, свяжитесь с нами, и мы незамедлительно удалим ее. Файлы для обмена на трекере предоставлены пользователями сайта, и администрация не несет ответственности за их содержание. Просьба не заливать файлы, защищенные авторскими правами, а также файлы нелегального содержания!