[ Сегодня идет свободное скачивание без начисления Download ]


Статистика раздачи
Нет
 
   
 
Top  
 
 
Дура
Жанр: трагикомедия
Год выпуска: 2004
Продолжительность: 01:34:55
Режиссёр: Максим Коростышевский
В ролях: Оксана Коростышевская, Евгений Редько, Регина Мянник, Александр Балуев, Ольга Волкова, Дмитрий Шевченко, Игорь Золотовицкий, Татьяна Лютаева, Эдуард Радзюкевич, Алексей Иващенко, Наталья Батрак, Сергей Внуков, Константин Глушков, Федор Глущенко, Вадим Гусев, Елена Дембинская, Лариса Исаева, Теона Контридзе, Юрий Крючков, Наталья Назарова, Наталья Позднякова, Наталья Фомина, Даша и Саша Маркины
Описание: В некоем городе живут две сестры-двойняшки, одной из которых крупно не повезло уже при рождении: Ульяна - «щипцовый ребенок», к тридцати годам сохранившая миросозерцание, поведение и реакции маленькой девочки. Второй - Лизе - не повезло еще больше. Она - здоровый человек, жизнь которого полностью зависит от сестры-инвалида. После смерти матери Лизе приходится заботится об Ульяне, которая, вольно или невольно, постоянно портит жизнь и карьеру сестры-актрисы. А тут еще в доме наконец-то появляется мужчина - начинающий писатель Саша, в которого влюбляются обе сестры...
Доп. информация:
Сценарий: Наталья Назарова (при участии Максима Коростышевского)
Оператор: Мария Соловьева
Художник: Владимир Гудилин
Композиторы: Сергей Шустицкий, Иван Волков (основная музыкальная тема)
Награды: призы в номинациях «За лучшую режиссуру», «Лучшая женская роль», а также специальный приз жюри Оксане Коростышевской на кинофоруме «Амурская Осень» (2004); приз за лучшую музыку на фестивале «Окно в Европу» (Выборг, 2005)
Ограничения на просмотр: детям до 12 лет просмотр фильма разрешен в сопровождении родителей

Качество видео: DVDRip
Формат видео: AVI
Видео: 704x384 (1.83:1), 25 fps, XviD 1.2.1, 1754 kbps avg, 0.26 bit/pixel
Аудио: 48 kHz, AC3 Dolby Digital, 3/2 (L,C,R,l,r) + LFE ch, 448.00 kbps avg

MediaInfo

Полное имя : Dura.avi
Формат : AVI
Формат/Информация : Audio Video Interleave
Размер файла : 1,47 Гбайт
Продолжительность : 1 ч. 34 м.
Общий поток : 2212 Кбит/сек
Программа кодирования : VirtualDubMod 1.5.10.3 (build 2550/release)
Библиотека кодирования : VirtualDubMod build 2550/release
Видео
Идентификатор : 0
Формат : MPEG-4 Visual
Профиль формата : Advanced Simple@L5
Параметр BVOP формата : 1
Параметр QPel формата : Нет
Параметр GMC формата : Без точки перехода
Параметр матрицы формата : Выборочная
Режим смешивания : Сжатый битовый поток
Идентификатор кодека : XVID
Идентификатор кодека/Подсказка : XviD
Продолжительность : 1 ч. 34 м.
Битрейт : 1755 Кбит/сек
Ширина : 704 пикселя
Высота : 384 пикселя
Соотношение сторон : 16:9
Частота кадров : 25,000 кадров/сек
Цветовое пространство : YUV
Субдискретизация насыщенности : 4:2:0
Битовая глубина : 8 бит
Тип развёртки : Прогрессивная
Метод сжатия : С потерями
Бит/(Пиксели*Кадры) : 0.260
Размер потока : 1,16 Гбайт (79%)
Библиотека кодирования : XviD 1.2.1 (UTC 2008-12-04)
Аудио
Идентификатор : 1
Формат : AC-3
Формат/Информация : Audio Coding 3
Расширение режима : CM (complete main)
Идентификатор кодека : 2000
Продолжительность : 1 ч. 34 м.
Вид битрейта : Постоянный
Битрейт : 448 Кбит/сек
Каналы : 6 каналов
Расположение каналов : Front: L C R, Side: L R, LFE
Частота : 48,0 КГц
Битовая глубина : 16 бит
Метод сжатия : С потерями
Размер потока : 304 Мбайт (20%)
Выравнивание : Разделение по промежуткам
Продолжительность промежутка : 40 мс. (1,00 видеокадр)
Время предзагрузки промежутка : 500 мс.

Скриншоты

[Цитировать]

Смотрела лет 5 назад,отличный фильм!

[Цитировать]



Показать сообщения:    

Текущее время: 09-Дек 04:57

Часовой пояс: UTC + 3


Вы не можете начинать темы
Вы не можете отвечать на сообщения
Вы не можете редактировать свои сообщения
Вы не можете удалять свои сообщения
Вы не можете голосовать в опросах
Вы не можете прикреплять файлы к сообщениям
Вы не можете скачивать файлы

!ВНИМАНИЕ!
Сайт не предоставляет электронные версии произведений, а занимается лишь коллекционированием и каталогизацией ссылок, присылаемых и публикуемых на форуме нашими читателями. Если вы являетесь правообладателем какого-либо представленного материала и не желаете, чтобы ссылка на него находилась в нашем каталоге, свяжитесь с нами, и мы незамедлительно удалим ее. Файлы для обмена на трекере предоставлены пользователями сайта, и администрация не несет ответственности за их содержание. Просьба не заливать файлы, защищенные авторскими правами, а также файлы нелегального содержания!