[ Сегодня идет свободное скачивание без начисления Download ]


Статистика раздачи
Нет
 
   
 
Top  
 
 
Жить
Жанр: драма, криминал
Год выпуска: 2010
Продолжительность: 01:12:00
Режиссёр: Юрий Быков
В ролях: Денис Шведов, Владислав Толдыков, Константин Стрельников, Алексей Комашко, Сергей Жарков, Сергей Сосновский, Сергей Беляев
Описание: Дикие места. Трое преследуют пожилого охотника и молодого парня. Один — проводник, второй — боец. Незнакомые, чуждые друг другу люди должны вместе выжить и добраться до города. Какова цена жизни? На этот вопрос каждый ответит по-своему.
Рейтинг:
Номинации:
Кинотавр, 2010 год:
- Главный приз
Семпл: http://multi-up.com/629682
Качество видео: Rip-AVC
Формат видео: MKV
Видео: x264, 720x392 (16:9), 25 fps, 1598 kbit/s
Аудио: AC3, 48.0 kHz, 192 kbit/s, 2h

MediaInfo

Общее
Уникальный идентификатор : 217051687607086293692472757900998803936 (0xA34AA26C3F620BCBBE13AB54973B01E0)
Полное имя : Жить (2010) DVD\Жить (2010) DVDRip-AVC.mkv
Формат : Matroska
Версия формата : Version 2
Размер файла : 941 Мбайт
Продолжительность : 1 ч. 12 м.
Общий поток : 1827 Кбит/сек
Дата кодирования : UTC 2012-01-15 08:45:02
Программа кодирования : mkvmerge v5.2.1 ('A Far Off Place') built on Jan 7 2012 21:56:27
Библиотека кодирования : libebml v1.2.3 + libmatroska v1.3.0
Видео
Идентификатор : 1
Формат : AVC
Формат/Информация : Advanced Video Codec
Профиль формата : High@L3.1
Параметр CABAC формата : Да
Параметр ReFrames формата : 10 кадров
Идентификатор кодека : V_MPEG4/ISO/AVC
Продолжительность : 1 ч. 12 м.
Битрейт : 1598 Кбит/сек
Ширина : 720 пикселей
Высота : 392 пикселя
Соотношение сторон : 16:9
Частота кадров : 25,000 кадров/сек
Цветовое пространство : YUV
Субдискретизация насыщенности : 4:2:0
Битовая глубина : 8 бит
Тип развёртки : Прогрессивная
Бит/(Пиксели*Кадры) : 0.227
Размер потока : 823 Мбайт (87%)
Библиотека кодирования : x264 core 120 r2120 0c7dab9
Настройки программы : cabac=1 / ref=10 / deblock=1:-1:-1 / analyse=0x3:0x133 / me=umh / subme=10 / psy=1 / psy_rd=1.00:0.00 / mixed_ref=1 / me_range=24 / chroma_me=1 / trellis=2 / 8x8dct=1 / cqm=0 / deadzone=21,11 / fast_pskip=0 / chroma_qp_offset=-2 / threads=6 / sliced_threads=0 / nr=0 / decimate=1 / interlaced=0 / bluray_compat=0 / constrained_intra=0 / bframes=9 / b_pyramid=2 / b_adapt=2 / b_bias=0 / direct=1 / weightb=1 / open_gop=0 / weightp=2 / keyint=250 / keyint_min=25 / scenecut=40 / intra_refresh=0 / rc_lookahead=60 / rc=crf / mbtree=1 / crf=18.0 / qcomp=0.60 / qpmin=0 / qpmax=69 / qpstep=4 / ip_ratio=1.40 / aq=1:1.00
Default : Да
Forced : Нет
Аудио
Идентификатор : 2
Формат : AC-3
Формат/Информация : Audio Coding 3
Расширение режима : CM (complete main)
Идентификатор кодека : A_AC3
Продолжительность : 1 ч. 12 м.
Вид битрейта : Постоянный
Битрейт : 192 Кбит/сек
Каналы : 2 канала
Расположение каналов : Front: L R
Частота : 48,0 КГц
Битовая глубина : 16 бит
Метод сжатия : С потерями
Размер потока : 98,9 Мбайт (11%)
Default : Да
Forced : Нет

x264log

avs [info]: 720x392p 1:1 @ 25/1 fps (cfr)
x264 [info]: using SAR=1/1
x264 [info]: using cpu capabilities: MMX2 SSE2Fast SSSE3 FastShuffle SSE4.2
x264 [info]: profile High, level 3.1
x264 [info]: frame I:733 Avg QP:15.48 size: 54870
x264 [info]: frame P:22656 Avg QP:18.95 size: 21364
x264 [info]: frame B:84611 Avg QP:23.95 size: 4227
x264 [info]: consecutive B-frames: 1.8% 2.1% 9.2% 13.5% 9.1% 58.5% 3.3% 0.9% 1.1% 0.5%
x264 [info]: mb I I16..4: 5.1% 78.4% 16.5%
x264 [info]: mb P I16..4: 1.1% 9.9% 1.4% P16..4: 38.1% 23.0% 16.8% 2.8% 0.7% skip: 6.2%
x264 [info]: mb B I16..4: 0.1% 0.8% 0.1% B16..8: 36.2% 8.8% 2.9% direct: 7.0% skip:44.0% L0:38.0% L1:40.2% BI:21.7%
x264 [info]: 8x8 transform intra:79.3% inter:64.4%
x264 [info]: coded y,uvDC,uvAC intra: 83.8% 74.7% 36.2% inter: 25.8% 17.0% 2.4%
x264 [info]: i16 v,h,dc,p: 30% 24% 9% 36%
x264 [info]: i8 v,h,dc,ddl,ddr,vr,hd,vl,hu: 17% 12% 9% 7% 10% 11% 11% 11% 12%
x264 [info]: i4 v,h,dc,ddl,ddr,vr,hd,vl,hu: 17% 9% 6% 8% 13% 13% 12% 11% 12%
x264 [info]: i8c dc,h,v,p: 37% 30% 20% 13%
x264 [info]: Weighted P-Frames: Y:3.1% UV:0.7%
x264 [info]: ref P L0: 41.2% 13.1% 19.1% 6.0% 6.2% 3.5% 4.0% 2.1% 2.5% 2.0% 0.3% 0.0%
x264 [info]: ref B L0: 80.3% 9.0% 3.8% 2.3% 1.5% 1.3% 1.0% 0.6% 0.3%
x264 [info]: ref B L1: 96.0% 4.0%
x264 [info]: kb/s:1633.08

Скриншоты

Внимание !!! Этот файл не будет воспроизводиться на бытовых DVD-плеерах, не имеющих поддержки кодека h.264.

[Цитировать]



Показать сообщения:    

Текущее время: 26-Мар 09:34

Часовой пояс: UTC + 6


Вы не можете начинать темы
Вы не можете отвечать на сообщения
Вы не можете редактировать свои сообщения
Вы не можете удалять свои сообщения
Вы не можете голосовать в опросах
Вы не можете прикреплять файлы к сообщениям
Вы не можете скачивать файлы

!ВНИМАНИЕ!
Сайт не предоставляет электронные версии произведений, а занимается лишь коллекционированием и каталогизацией ссылок, присылаемых и публикуемых на форуме нашими читателями. Если вы являетесь правообладателем какого-либо представленного материала и не желаете, чтобы ссылка на него находилась в нашем каталоге, свяжитесь с нами, и мы незамедлительно удалим ее. Файлы для обмена на трекере предоставлены пользователями сайта, и администрация не несет ответственности за их содержание. Просьба не заливать файлы, защищенные авторскими правами, а также файлы нелегального содержания!