[ Сегодня идет свободное скачивание без начисления Download ]


Статистика раздачи
Нет
 
   
 
Top  
 
 
Игра престолов / Game of Thrones Год выпуска: 2014
Страна: США, Великобритания
Жанр: Фэнтези, драма, приключения, экранизация
Продолжительность: 00:56:00
Перевод: Профессиональный (многоголосый закадровый) LostFilm
Режиссёр: Алан Тейлор, Даниэль Минахан, Дэвид Наттер
В ролях: Лина Хиди, Питер Динклэйдж, Мишель Фэйрли, Эмилия Кларк, Кит Харингтон, Николай Костер-Валдау, Иэн Глен, Эйден Гиллен, Элфи Оуэн-Аллен, Мэйси Уильямс, Софи Тёрнер, Джек Глисон, Айзек Хемпстед-Райт, Ричард Мэдден, Джером Флинн, Конлет Хилл, Дональд Самптер, Рори МакКанн, Амрита Ачария, Чарльз Дэнс, Джон Брэдли, Кристиан Нэйрн, Сибель Кекилли, Джеймс Космо, Стивен Диллэйн, Гетин Энтони, Гвендолин Кристи, Натали Дормер, Уна Чаплин
Описание: В захватывающем четвертом сезоне сериала по мотивам бестселлеров Джорджа Р. Р. Мартина, Ланнистеры продолжают править Вестеросом с железного трона, но сумеет ли семейство справиться с собственным его и пережить интриги многочисленных врагов? Непоколебимый Станнис Баретеон восстанавливает свою армию на драконьем камне, а с юга надвигается новая опасность- Оберин Мертелл по прозвищу «Красный змей дорна», презирающий дом Ланнистеров, приезжает в королевскую гавань на свадьбу Джоффри, на стене ночному дозору противостоят превосходные силы Манса Налетчика и его армии одичалых, за которыми следует куда более зловещий враг, тем временем Дейенерис Таргариен вместе с тремя драконами и армией безупречных намеревается «освободить» крупнейший восточный город работорговцев- Миэрин, что должно помочь ей набрать сил для выполнения главнейшей цели- вернуть железный трон своей семье.
Доп. информация: Автор рипа: EverGreen
Качество: BDRip 1080p
Контейнер: MKV
Видео: MPEG-4 AVC, 12.2 Мбит/с, 1920x1080, 23.976 кадр/c
Аудио 1: 48 kHz, AC3, 3/2 (L,C,R,l,r) + LFE ch, ~384.00 kbps avg|LostFilm|
Аудио 2: 48 kHz, AC3, 3/2 (L,C,R,l,r) + LFE ch, ~448.00 kbps avg|ENG|
Субтитры: Русские (полные, отключаемые), английские (полные, отключаемые)

Список серий

1. Two Swords - Два меча.
2. The Lion and the Rose - Лев и Роза.
3. Breaker of Chains - Разрушительница оков.
4. Oathkeeper - Верный клятве.
5. First of His Name - Первое из его имен.
6.The Laws of Gods and Men - Законы богов и людей.
7. Mockingbird - Пересмешник.
8. The Mountain and the Viper - Гора и змей.
9. The Watchers of the Wall - Смотрители на Стене.
10. The Children - Дети.

MediaInfo

General
Unique ID : 211615881949495394462526467837918367448 (0x9F33BC8319E4CAEAA843C214E082CED8)
Complete name : C:UsersAdminDownloadsgame.of.thrones.s4.1080pgame.of.thrones.s4.s1.1080p.mkv
Format : Matroska
Format version : Version 4 / Version 2
File size : 5.30 GiB
Duration : 58mn 13s
Overall bit rate : 13.0 Mbps
Encoded date : UTC 2015-04-02 04:36:43
Writing application : mkvmerge v7.8.0 ('River Man') 64bit built on Mar 27 2015 16:31:37
Writing library : libebml v1.3.1 + libmatroska v1.4.2
DURATION : 00:58:13.152000000
NUMBER_OF_FRAMES : 109161
NUMBER_OF_BYTES : 195616512
_STATISTICS_WRITING_APP : mkvmerge v7.8.0 ('River Man') 64bit built on Mar 27 2015 16:31:37
_STATISTICS_WRITING_DATE_UTC : 2015-04-02 04:36:43
_STATISTICS_TAGS : BPS DURATION NUMBER_OF_FRAMES NUMBER_OF_BYTES
Video
ID : 3
Format : AVC
Format/Info : Advanced Video Codec
Format profile : High@L4.1
Format settings, CABAC : Yes
Format settings, ReFrames : 4 frames
Codec ID : V_MPEG4/ISO/AVC
Duration : 58mn 13s
Bit rate : 12.2 Mbps
Width : 1 920 pixels
Height : 1 080 pixels
Display aspect ratio : 16:9
Frame rate mode : Constant
Frame rate : 23.976 fps
Color space : YUV
Chroma subsampling : 4:2:0
Bit depth : 8 bits
Scan type : Progressive
Bits/(Pixel*Frame) : 0.245
Stream size : 4.86 GiB (92%)
Writing library : x264 core 133 r2334 a3ac64b
Encoding settings : cabac=1 / ref=4 / deblock=1:-2:-1 / analyse=0x3:0x133 / me=umh / subme=11 / psy=1 / psy_rd=1.00:0.18 / mixed_ref=1 / me_range=32 / chroma_me=1 / trellis=2 / 8x8dct=1 / cqm=0 / deadzone=21,11 / fast_pskip=1 / chroma_qp_offset=-3 / threads=6 / lookahead_threads=1 / sliced_threads=0 / nr=0 / decimate=1 / interlaced=0 / bluray_compat=0 / constrained_intra=0 / bframes=13 / b_pyramid=2 / b_adapt=2 / b_bias=0 / direct=3 / weightb=1 / open_gop=0 / weightp=2 / keyint=250 / keyint_min=23 / scenecut=40 / intra_refresh=0 / rc_lookahead=70 / rc=2pass / mbtree=1 / bitrate=12180 / ratetol=1.0 / qcomp=0.60 / qpmin=0 / qpmax=69 / qpstep=4 / cplxblur=20.0 / qblur=0.5 / ip_ratio=1.40 / aq=1:1.00
Language : English
Default : Yes
Forced : No
Audio #1
ID : 4
Format : AC-3
Format/Info : Audio Coding 3
Mode extension : CM (complete main)
Format settings, Endianness : Big
Codec ID : A_AC3
Duration : 58mn 13s
Bit rate mode : Constant
Bit rate : 384 Kbps
Channel(s) : 6 channels
Channel positions : Front: L C R, Side: L R, LFE
Sampling rate : 48.0 KHz
Bit depth : 16 bits
Compression mode : Lossy
Stream size : 160 MiB (3%)
Title : LostFilm
Language : Russian
Default : Yes
Forced : No
Audio #2
ID : 5
Format : AC-3
Format/Info : Audio Coding 3
Mode extension : CM (complete main)
Format settings, Endianness : Big
Codec ID : A_AC3
Duration : 58mn 13s
Bit rate mode : Constant
Bit rate : 448 Kbps
Channel(s) : 6 channels
Channel positions : Front: L C R, Side: L R, LFE
Sampling rate : 48.0 KHz
Bit depth : 16 bits
Compression mode : Lossy
Stream size : 187 MiB (3%)
Language : English
Default : No
Forced : No
Text #1
ID : 1
Format : PGS
Muxing mode : zlib
Codec ID : S_HDMV/PGS
Codec ID/Info : The same subtitle format used on BDs/HD-DVDs
Language : English
Default : Yes
Forced : No
DURATION : 00:58:13.121000000
NUMBER_OF_FRAMES : 83751
NUMBER_OF_BYTES : 5321125797
_STATISTICS_WRITING_APP : mkvmerge v7.8.0 ('River Man') 64bit built on Mar 27 2015 16:31:37
_STATISTICS_WRITING_DATE_UTC : 2015-04-02 04:36:43
_STATISTICS_TAGS : BPS DURATION NUMBER_OF_FRAMES NUMBER_OF_BYTES
Text #2
ID : 2
Format : PGS
Muxing mode : zlib
Codec ID : S_HDMV/PGS
Codec ID/Info : The same subtitle format used on BDs/HD-DVDs
Language : Russian
Default : No
Forced : No

Скриншоты

[Цитировать]



Показать сообщения:    

Текущее время: 08-Дек 03:10

Часовой пояс: UTC + 3


Вы не можете начинать темы
Вы не можете отвечать на сообщения
Вы не можете редактировать свои сообщения
Вы не можете удалять свои сообщения
Вы не можете голосовать в опросах
Вы не можете прикреплять файлы к сообщениям
Вы не можете скачивать файлы

!ВНИМАНИЕ!
Сайт не предоставляет электронные версии произведений, а занимается лишь коллекционированием и каталогизацией ссылок, присылаемых и публикуемых на форуме нашими читателями. Если вы являетесь правообладателем какого-либо представленного материала и не желаете, чтобы ссылка на него находилась в нашем каталоге, свяжитесь с нами, и мы незамедлительно удалим ее. Файлы для обмена на трекере предоставлены пользователями сайта, и администрация не несет ответственности за их содержание. Просьба не заливать файлы, защищенные авторскими правами, а также файлы нелегального содержания!