[ Сегодня идет свободное скачивание без начисления Download ]


Статистика раздачи
Нет
 
   
 
Top  
 
 
Зорро на службе королевы / Зорро и английский суд / Zorro alla corte d'Inghilterra
Страна: Италия
Жанр: Приключения
Год выпуска: 1970
Продолжительность: 01:34:06
Перевод: Субтитры андрей-д
Cубтитры: русские
Оригинальная аудиодорожка: итальянский
Режиссер: Франко Монтемурро / Franco Montemurro
В ролях: Спирос Фокас, Дада Галлотти, Франко Рессель, Массимо Кароччи, Туллио Альтамура, Игнацио Бальзамо, Бруно Бошетти, Барбара Кэролл, Спартако Конверси
Описание: Легендарный Зорро борется с беззаконием губернатора английской колонии на одном из Бермудских островов.
Доп. информация: Рип, предоставлен larisa547
Сэмпл: http://multi-up.com/1041949
Качество видео: DVDRip
Формат видео: AVI
Видео: 688x368 (1.87:1), 25 fps, XviD build 64 ~2027 kbps avg, 0.32 bit/pixel
Аудио: 48 kHz, MPEG Layer 3, 2 ch, ~128.00 kbps avg
Формат субтитров: softsub (SRT)

MediaInfo

Format : AVI
Format/Info : Audio Video Interleave
Format profile : OpenDML
File size : 1.42 GiB
Duration : 1h 34mn
Overall bit rate : 2 162 Kbps
Writing application : Lavf54.63.104
Video
ID : 0
Format : xvid
Codec ID : xvid
Duration : 1h 34mn
Bit rate : 2 019 Kbps
Width : 688 pixels
Height : 368 pixels
Display aspect ratio : 1.85:1
Frame rate : 25.000 fps
Bits/(Pixel*Frame) : 0.319
Stream size : 1.33 GiB (93%)
Audio
ID : 1
Format : MPEG Audio
Format version : Version 1
Format profile : Layer 3
Mode : Joint stereo
Mode extension : MS Stereo
Codec ID : 55
Codec ID/Hint : MP3
Duration : 1h 34mn
Bit rate mode : Constant
Bit rate : 128 Kbps
Channel count : 2 channels
Sampling rate : 48.0 KHz
Compression mode : Lossy
Stream size : 86.1 MiB (6%)
Alignment : Aligned on interleaves
Interleave, duration : 24 ms (0.60 video frame)
Writing library : LAME3.99.5

Скриншот c названием фильма

Скриншоты

Пример субтитров

1
00:00:02,360 --> 00:00:05,360
Зорро на службе королевы
2
00:02:34,840 --> 00:02:37,840
Мануэль Гарсия, признан виновным
в ведении переговоров с врагом, сочинении
3
00:02:38,400 --> 00:02:40,999
и распространении среди
жителей острова Гамильтон,
4
00:02:41,000 --> 00:02:43,159
призывов к восстанию.
5
00:02:43,160 --> 00:02:45,159
Именем королевы,
6
00:02:45,160 --> 00:02:48,079
губернатор острова,
сэр Бэзил Рутфорд
7
00:02:48,080 --> 00:02:51,080
приговорил его к смертной казни
через повешение.
8
00:03:02,840 --> 00:03:05,479
Когда-то, он заплатит за это.
9
00:03:05,480 --> 00:03:08,480
Уже - третий за месяц.
Рано или поздно, наступит и наша очередь.
10
00:03:13,680 --> 00:03:15,599
Мануэль! Мануэль!
11
00:03:15,600 --> 00:03:17,839
Уже, пора нам восстать!
Всем!
12
00:03:17,840 --> 00:03:20,840
Мы должны, решиться на мятеж!
13
00:03:22,480 --> 00:03:25,480
Никто, ничего не может сделать,
что-нибудь против этих тиранов.
14
00:03:26,440 --> 00:03:28,759
Чёрт, вас возьми! Убийцы!
15
00:03:28,760 --> 00:03:30,159
К чёрту, их всех!
16
00:03:30,160 --> 00:03:33,160
Выполнять!
17
00:03:36,120 --> 00:03:38,239
Заменить верёвку.
18
00:03:38,240 --> 00:03:40,679
Ваше превосходительство!
Могу ли, я заметить,
19
00:03:40,680 --> 00:03:43,680
что согласно традиции, если
осуждённый избегает смерти,
20
00:03:44,040 --> 00:03:47,040
по такой причине, как эта,
то его отпускают на свободу.

[Цитировать]



Показать сообщения:    

Текущее время: 04-Дек 21:29

Часовой пояс: UTC + 3


Вы не можете начинать темы
Вы не можете отвечать на сообщения
Вы не можете редактировать свои сообщения
Вы не можете удалять свои сообщения
Вы не можете голосовать в опросах
Вы не можете прикреплять файлы к сообщениям
Вы не можете скачивать файлы

!ВНИМАНИЕ!
Сайт не предоставляет электронные версии произведений, а занимается лишь коллекционированием и каталогизацией ссылок, присылаемых и публикуемых на форуме нашими читателями. Если вы являетесь правообладателем какого-либо представленного материала и не желаете, чтобы ссылка на него находилась в нашем каталоге, свяжитесь с нами, и мы незамедлительно удалим ее. Файлы для обмена на трекере предоставлены пользователями сайта, и администрация не несет ответственности за их содержание. Просьба не заливать файлы, защищенные авторскими правами, а также файлы нелегального содержания!