[ Сегодня идет свободное скачивание без начисления Download ]


Статистика раздачи
Нет
 
   
 
Top  
 
 
Зорро и великая герцогиня / Зорро и суд Испании / Zorro alla corte di Spagna / Zorro at the Spanish Court
Страна: Италия
Жанр: Приключения
Год выпуска: 1962
Продолжительность: 01:24:44
Перевод: Субтитры андрей-д
Cубтитры: русские
Оригинальная аудиодорожка: английский
Режиссер: Луиджи Капуано / Luigi Capuano
В ролях: Джордж Ардиссон, Альберто Лупо, Франко Фантазия, Антонио Градоли,
Карло Тамберлани, Амедео Трилли, Мария Грация Спина, Наццарено Дзамперла
Описание: Дон Рамон, после смерти брата, захватил власть в герцогстве Лузитания, вопреки законным правам вдовы и дочери покойного великого герцога. Желая, узаконить свою власть, он похищает дочь герцогини и требует от её матери, чтобы та отреклась от престола. На защиту интересов наследницы престола встаёт таинственный всадник в маске по имени Зорро, появление которого совпало с возвращением из Мексики сына маркиза Вильярреал. После удивительных приключений, Зорро удается спасти похищенную дочь герцогини и восстановить права законной наследницы. Но, кто на самом деле храбрый Зорро?
Доп. информация: Рип, предоставлен larisa547
Сэмпл: http://multi-up.com/1042156
Качество видео: DVDRip
Формат видео: AVI
Видео: 688x384 (1.79:1), 25 fps, XviD build 64 ~1097 kbps avg, 0.17 bit/pixel
Аудио: 48 kHz, MPEG Layer 3, 2 ch, ~128.00 kbps avg
Формат субтитров: softsub (SRT)

MediaInfo

Format : AVI
Format/Info : Audio Video Interleave
File size : 751 MiB
Duration : 1h 24mn
Overall bit rate : 1 239 Kbps
Writing application : Lavf54.63.104
Video
ID : 0
Format : xvid
Codec ID : xvid
Duration : 1h 24mn
Bit rate : 1 098 Kbps
Width : 688 pixels
Height : 384 pixels
Display aspect ratio : 16:9
Frame rate : 25.000 fps
Bits/(Pixel*Frame) : 0.166
Stream size : 666 MiB (89%)
Audio
ID : 1
Format : MPEG Audio
Format version : Version 1
Format profile : Layer 3
Mode : Joint stereo
Mode extension : MS Stereo
Codec ID : 55
Codec ID/Hint : MP3
Duration : 1h 24mn
Bit rate mode : Constant
Bit rate : 128 Kbps
Channel count : 2 channels
Sampling rate : 48.0 KHz
Compression mode : Lossy
Stream size : 77.6 MiB (10%)
Alignment : Aligned on interleaves
Interleave, duration : 24 ms (0.60 video frame)

Скриншот c названием фильма

Скриншоты

Пример субтитров

1
00:00:00,407 --> 00:00:03,407
Зорро и великая герцогиня
2
00:02:06,687 --> 00:02:09,687
Сменные лошади, готовы?
- Всё в порядке, граф Кабрал.
3
00:02:13,167 --> 00:02:16,167
Перестану беспокоиться только - когда
великая герцогиня будет в безопасности.
4
00:02:17,487 --> 00:02:19,886
Конечно, граф.
5
00:02:19,887 --> 00:02:22,887
А, вот и карета.
6
00:02:35,247 --> 00:02:38,247
Быстро, сменить лошадей!
Быстро, как только возможно! Сейчас же!
7
00:02:41,527 --> 00:02:44,527
Хвала, небесам! Вы - здесь!
8
00:02:45,487 --> 00:02:48,406
Не видя, как вы возвращаетесь,
опасался худшего.
9
00:02:48,407 --> 00:02:51,407
Чтобы, избежать патрулей дона Рамона,
нам пришлось ехать окольным путём.
10
00:02:52,047 --> 00:02:54,846
Граф Терсейра, будет
в вашем распоряжении.
11
00:02:54,847 --> 00:02:57,847
Он: приютит вас и вашу дочь.
12
00:02:59,207 --> 00:03:01,166
Будьте, здоровы.
13
00:03:01,167 --> 00:03:04,167
Последний этап в наших скитаниях.
14
00:03:04,287 --> 00:03:07,287
Неужели, мы никогда не вернёмся в наш
красивый дом, мама?
15
00:03:07,567 --> 00:03:09,406
Будем надеяться, моё сокровище.
16
00:03:09,407 --> 00:03:11,526
Наши шпаги и жизни,
17
00:03:11,527 --> 00:03:14,527
принадлежат вам: единственная, настоящая,
великая герцогиня Лузитании.
18
00:03:15,687 --> 00:03:18,687
Пока, на моей стороне, есть такие
верноподданные, как вы,
19
00:03:19,127 --> 00:03:21,606
Гарсия - ещё не всё потеряно.
20
00:03:21,607 --> 00:03:24,046
Бог не позволит долго злоупотреблять властью,
21
00:03:24,047 --> 00:03:27,006
которую сейчас, получил брат вашего мужа,
дон Рамон, правящий на вашем месте.

[Цитировать]



Показать сообщения:    

Текущее время: 11-Дек 05:16

Часовой пояс: UTC + 3


Вы не можете начинать темы
Вы не можете отвечать на сообщения
Вы не можете редактировать свои сообщения
Вы не можете удалять свои сообщения
Вы не можете голосовать в опросах
Вы не можете прикреплять файлы к сообщениям
Вы не можете скачивать файлы

!ВНИМАНИЕ!
Сайт не предоставляет электронные версии произведений, а занимается лишь коллекционированием и каталогизацией ссылок, присылаемых и публикуемых на форуме нашими читателями. Если вы являетесь правообладателем какого-либо представленного материала и не желаете, чтобы ссылка на него находилась в нашем каталоге, свяжитесь с нами, и мы незамедлительно удалим ее. Файлы для обмена на трекере предоставлены пользователями сайта, и администрация не несет ответственности за их содержание. Просьба не заливать файлы, защищенные авторскими правами, а также файлы нелегального содержания!