[ Сегодня идет свободное скачивание без начисления Download ]


Статистика раздачи
Нет
 
   
 
Top  
 
 
Сезон охоты 3 / Open Season 3Год выпуска: 2010
Страна: США
Слоган: «Это просто цирк какой-то!»
Жанр: мультфильм
Продолжительность: 01:14:35
Перевод: Профессиональный (полное дублирование)
Режиссер: Коуди Камерон / Cody Cameron
Сценарий: Дэвид И. Штерн / David I. Stern
Продюсер: Кирк Бодифелт / Kirk Bodyfelt, Дэвид И. Штерн / David I. Stern
Композитор: Джефф Кардони / Jeff Cardoni
В ролях: Кьяра Браво (Gesalita), Карли Скотт Коллинз (Gisela), Шон Маллен (Roger), Мэттью Дж. Мунн (Boog), Стив Ширрипа (Roberto), Дэна Снайдер (Alistair), Мелисса Штурм (Ursa), Мэттью В. Тейлор (Elliot)
Дублёры: Фёдор Бондарчук (Boog)-Сборы в России: $5 234 584
Мировая премьера: 21 октября 2010
Релиз на DVD: 18 ноября 2010, «Columbia\Sony»
Релиз на Blu-ray: 24 февраля 2011, «Columbia\Sony»-Описание: Продолжение сумасшедших приключений медведя-гризли Буга и его верного друга, оленя Элиота. На этот раз Буг пускается на поиски личного счастья и попадает… в бродячий цирк, где знакомится с очаровательной русской медведицей.-
MPAA: - Рекомендуется присутствие родителей-Торент файл перезалит 01.01.20011 г. Заменена русская дорожка ( c BD CEE)Качество: BDRip (CHD)
Формат: Matroska
Видео: AVC; 1920x1080 (16:9); 7842 Kbps; 23,976 fps; 0,158 bpp
Аудио №1: Russian; AC3; 640 Kbps; CBR; 6 ch (Дублированный с Blu-ray CEE)
Аудио №2: English; DTS; 1509 Kbps; CBR; 6 ch; 24 bit-

Скриншоты

MediaInfo

Общее
UniqueID/String : 249764601547343022481075409147031933931 (0xBBE6E99AB36A15CD9E4AA6A5914B53EB)
Полное имя : F:\Open.Season.III.2011.BluRay.1080p.DTS.x264.RUS.ENG.mkv
Формат : Matroska
Размер файла : 5,31 Гбайт
Продолжительность : 1 ч. 14 м.
Общий поток : 10,2 Мбит/сек
Дата кодирования : UTC 2011-01-01 15:22:12
Программа кодирования : mkvmerge v4.4.0 ('Die Wiederkehr') сборка от Oct 31 2010 21:52:48
Библиотека кодирования : libebml v1.0.0 + libmatroska v1.0.0
Видео
Идентификатор : 1
Формат : AVC
Формат/Информация : Advanced Video Codec
Профиль формата : High@L4.1
Параметр CABAC формата : Да
Параметр ReFrames формата : 4 кадры
Идентификатор кодека : V_MPEG4/ISO/AVC
Продолжительность : 1 ч. 14 м.
Битрейт : 8083 Кбит/сек
Ширина : 1920 пикс.
Высота : 1080 пикс.
Соотношение сторон : 16:9
Частота кадров : 23,976 кадр/сек
Цветовое пространство : YUV
Подвыборка цветности : 4:2:0
Битовая глубина : 8 бит
Тип развёртки : Прогрессивная
Бит/(Пиксели*Кадры) : 0.163
Размер потока : 4,08 Гбайт (77%)
Заголовок : Open.Season.3.2011
Библиотека кодирования : x264 core 107 r1766 f9f0035
Настройки программы : cabac=1 / ref=4 / deblock=1:-2:-2 / analyse=0x3:0x113 / me=umh / subme=10 / psy=1 / psy_rd=1.00:0.00 / mixed_ref=1 / me_range=48 / chroma_me=1 / trellis=2 / 8x8dct=1 / cqm=2 / deadzone=21,11 / fast_pskip=0 / chroma_qp_offset=-1 / threads=12 / sliced_threads=0 / nr=0 / decimate=1 / interlaced=0 / constrained_intra=0 / bframes=6 / b_pyramid=2 / b_adapt=2 / b_bias=0 / direct=3 / weightb=1 / open_gop=0 / weightp=2 / keyint=250 / keyint_min=23 / scenecut=40 / intra_refresh=0 / rc_lookahead=40 / rc=2pass / mbtree=0 / bitrate=8083 / ratetol=1.0 / qcomp=0.70 / qpmin=10 / qpmax=51 / qpstep=4 / cplxblur=20.0 / qblur=0.5 / vbv_maxrate=45000 / vbv_bufsize=40000 / ip_ratio=1.40 / pb_ratio=1.30 / aq=1:0.80 / nal_hrd=none
Язык : English
Аудио #1
Идентификатор : 2
Формат : AC-3
Формат/Информация : Audio Coding 3
Расширение режима : CM (complete main)
Идентификатор кодека : A_AC3
Продолжительность : 1 ч. 14 м.
Вид битрейта : Постоянный
Битрейт : 640 Кбит/сек
Канал(ы) : 6 канала(ов)
Расположение каналов : Front: L C R, Side: L R, LFE
Частота : 48,0 КГц
Битовая глубина : 16 бит
Метод сжатия : С потерями
Размер потока : 341 Мбайт (6%)
Заголовок : Dub AC3 5.1 @ 640 kbps
Язык : Russian
Аудио #2
Идентификатор : 3
Формат : DTS
Формат/Информация : Digital Theater Systems
Идентификатор кодека : A_DTS
Продолжительность : 1 ч. 14 м.
Вид битрейта : Постоянный
Битрейт : 1510 Кбит/сек
Канал(ы) : 6 канала(ов)
Расположение каналов : Front: L C R, Side: L R, LFE
Частота : 48,0 КГц
Битовая глубина : 24 бит
Метод сжатия : С потерями
Размер потока : 806 Мбайт (15%)
Заголовок : DTS-CORE 1536K
Язык : English
Текст
Идентификатор : 4
Формат : UTF-8
Идентификатор кодека : S_TEXT/UTF8
Идентификатор кодека/Информация : UTF-8 Plain Text
Заголовок : forced
Язык : Russian
Меню
00:00:00.000 : en:00:00:00.000
00:05:06.389 : en:00:05:06.389
00:08:07.654 : en:00:08:07.654
00:10:57.156 : en:00:10:57.156
00:17:48.067 : en:00:17:48.067
00:20:53.002 : en:00:20:53.002
00:23:23.736 : en:00:23:23.736
00:27:21.014 : en:00:27:21.014
00:34:31.861 : en:00:34:31.861
00:40:38.436 : en:00:40:38.436
00:45:48.663 : en:00:45:48.663
00:49:44.857 : en:00:49:44.857
00:54:03.866 : en:00:54:03.866
00:58:03.313 : en:00:58:03.313
01:03:22.799 : en:01:03:22.799
01:07:24.457 : en:01:07:24.457

[Цитировать]



Показать сообщения:    

Текущее время: 08-Дек 23:05

Часовой пояс: UTC + 3


Вы не можете начинать темы
Вы не можете отвечать на сообщения
Вы не можете редактировать свои сообщения
Вы не можете удалять свои сообщения
Вы не можете голосовать в опросах
Вы не можете прикреплять файлы к сообщениям
Вы не можете скачивать файлы

!ВНИМАНИЕ!
Сайт не предоставляет электронные версии произведений, а занимается лишь коллекционированием и каталогизацией ссылок, присылаемых и публикуемых на форуме нашими читателями. Если вы являетесь правообладателем какого-либо представленного материала и не желаете, чтобы ссылка на него находилась в нашем каталоге, свяжитесь с нами, и мы незамедлительно удалим ее. Файлы для обмена на трекере предоставлены пользователями сайта, и администрация не несет ответственности за их содержание. Просьба не заливать файлы, защищенные авторскими правами, а также файлы нелегального содержания!