[ Сегодня идет свободное скачивание без начисления Download ]


Статистика раздачи
Нет
 
   
 
Top  
 
 
Леди и бродяга 2: Приключения Шалуна / Lady and the Tramp II: Scamp's Adventure

Страна: США, Австралия
Жанр: мультфильм, мелодрама, приключения, семейный
Продолжительность: 01:09:02-Год выпуска: 2001
Перевод: Профессиональный (дублированный)
Русские субтитры: есть-Режиссёр: Даррел Руни / Darrell Rooney, Джаннин Пассел / Jeannine Roussel
Роли озвучивали: Скотт Вулф, Алисса Милано, Чазз Пальминтери, Джефф Беннетт, Джоди Бенсон, Билл Фагербакки, Микки Руни, Бронсон Пинчот, Кэти Мориарти, Мэри Кэй Бергман-Описание: Продолжение классического диснеевского мультфильма о трогательных отношениях породистой Лесси и бездомного пса. Они уже родители целой своры щенков - трёх работящих девочек и одного буйного щенка-мальчика по прозвищу Бездельник. В поисках риска и «реальной» собачьей жизни Бездельник уходит из дома и встречает Ангела, Бастера и его шайку. Вместе с верными друзьями он переживёт множество комичных ситуаций а также столкнётся с опасностями, которые вполне могут ожидать маленького щенка на улицах большого города. Хотя Бездельник и нашёл риск, но мысли его возвращаются к дому и родным..-- | imdb | kinopoisk | Сэмпл--Качество: BDRip 1080p
Формат: MKV
Видео: x.264, NTSC 23.976, 1920x1080, 17,9 mb/s
Аудио:Russian: AC3, 640 kb/s, 5.1, 48 kHz, 16 bits |лицензия, студия "Пифагор"|
Аудио 2: English: DTS, 1536 kb/s, 5.1, 48 kHz, 16 bits
Субтитры: Русские, Английские--

Подробные технические данные

ОбщееУникальный идентификатор : 200488346669854191363205948070423398606 (0x96D4A6AA3E71C193B76982191DEF88CE)Полное имя : B:\Lady.And.The.Tramp.II.2001.BDRip.1080p.x264.ac3.dts.rus.eng.IRONCLUB.mkvФормат : MatroskaВерсия формата : Version 2Размер файла : 9,67 ГбайтПродолжительность : 1 ч. 9 м.Общий поток : 20,1 Мбит/секНазвание фильма : -= Rip bi Kim =-Дата кодирования : UTC 2012-02-03 13:03:42Программа кодирования : mkvmerge v5.2.0 ('I can't explain') built on Dec 18 2011 18:12:03Библиотека кодирования : libebml v1.2.3 + libmatroska v1.3.0
ВидеоИдентификатор : 1Формат : AVCФормат/Информация : Advanced Video CodecПрофиль формата : [email protected] CABAC формата : ДаПараметр ReFrames формата : 4 кадраИдентификатор кодека : V_MPEG4/ISO/AVCПродолжительность : 1 ч. 9 м.Битрейт : 17,9 Мбит/секШирина : 1920 пикселейВысота : 1080 пикселейСоотношение сторон : 16:9Частота кадров : 23,976 кадра/секЦветовое пространство : YUVСубдискретизация насыщенности : 4:2:0Битовая глубина : 8 битТип развёртки : ПрогрессивнаяБит/(Пиксели*Кадры) : 0.360Размер потока : 8,44 Гбайт (87%)Заголовок : -= IRONCLUB =-Библиотека кодирования : x264 core 116 r2074 2641b9eНастройки программы : cabac=1 / ref=4 / deblock=1:0:0 / analyse=0x3:0x133 / me=umh / subme=11 / psy=1 / psy_rd=1.00:0.15 / mixed_ref=1 / me_range=32 / chroma_me=1 / trellis=2 / 8x8dct=1 / cqm=0 / deadzone=21,11 / fast_pskip=0 / chroma_qp_offset=-3 / threads=12 / sliced_threads=0 / nr=0 / decimate=1 / interlaced=0 / bluray_compat=0 / constrained_intra=0 / bframes=7 / b_pyramid=2 / b_adapt=2 / b_bias=0 / direct=3 / weightb=1 / open_gop=0 / weightp=2 / keyint=250 / keyint_min=23 / scenecut=40 / intra_refresh=0 / rc_lookahead=40 / rc=2pass / mbtree=1 / bitrate=17895 / ratetol=1.0 / qcomp=0.60 / qpmin=0 / qpmax=69 / qpstep=4 / cplxblur=20.0 / qblur=0.5 / vbv_maxrate=50000 / vbv_bufsize=62500 / nal_hrd=none / ip_ratio=1.40 / aq=1:1.00Язык : EnglishDefault : ДаForced : Нет
Аудио #1Идентификатор : 2Формат : AC-3Формат/Информация : Audio Coding 3Расширение режима : CM (complete main)Идентификатор кодека : A_AC3Продолжительность : 1 ч. 9 м.Вид битрейта : ПостоянныйБитрейт : 640 Кбит/секКаналы : 6 каналовРасположение каналов : Front: L C R, Side: L R, LFEЧастота : 48,0 КГцБитовая глубина : 16 битМетод сжатия : С потерямиРазмер потока : 316 Мбайт (3%)Заголовок : ДубляжЯзык : RussianDefault : ДаForced : Нет
Аудио #2Идентификатор : 3Формат : DTSФормат/Информация : Digital Theater SystemsИдентификатор кодека : A_DTSПродолжительность : 1 ч. 9 м.Вид битрейта : ПостоянныйБитрейт : 1510 Кбит/секКаналы : 6 каналовРасположение каналов : Front: L C R, Side: L R, LFEЧастота : 48,0 КГцБитовая глубина : 24 битМетод сжатия : С потерямиРазмер потока : 745 Мбайт (8%)Заголовок : ОригиналЯзык : EnglishDefault : НетForced : Нет
Текст #1Идентификатор : 4Формат : UTF-8Идентификатор кодека : S_TEXT/UTF8Идентификатор кодека/Информация : UTF-8 Plain TextЯзык : RussianDefault : ДаForced : Нет
Текст #2Идентификатор : 5Формат : UTF-8Идентификатор кодека : S_TEXT/UTF8Идентификатор кодека/Информация : UTF-8 Plain TextЯзык : EnglishDefault : НетForced : Нет

Скриншоты

[Цитировать]



Показать сообщения:    

Текущее время: 06-Дек 15:13

Часовой пояс: UTC + 3


Вы не можете начинать темы
Вы не можете отвечать на сообщения
Вы не можете редактировать свои сообщения
Вы не можете удалять свои сообщения
Вы не можете голосовать в опросах
Вы не можете прикреплять файлы к сообщениям
Вы не можете скачивать файлы

!ВНИМАНИЕ!
Сайт не предоставляет электронные версии произведений, а занимается лишь коллекционированием и каталогизацией ссылок, присылаемых и публикуемых на форуме нашими читателями. Если вы являетесь правообладателем какого-либо представленного материала и не желаете, чтобы ссылка на него находилась в нашем каталоге, свяжитесь с нами, и мы незамедлительно удалим ее. Файлы для обмена на трекере предоставлены пользователями сайта, и администрация не несет ответственности за их содержание. Просьба не заливать файлы, защищенные авторскими правами, а также файлы нелегального содержания!