[ Сегодня идет свободное скачивание без начисления Download ]


Статистика раздачи
Нет
 
   
 
Top  
 
 
Книга жизни / The Book of Life
Страна: США
Жанр: мультфильм, фэнтези, мелодрама, комедия, приключен
Продолжительность: 01:35:25
Год выпуска: 2014
Перевод: Профессиональный (дублированный) iTunes
Перевод 2: Любительский (двухголосый закадровый) Студия Пиратского Дубляжа
Субтитры: русские, английские
Режиссёр: Хорхе Р. Гутьеррес / Jorge R. Guti?rrez
Роли озвучивали: Диего Луна, Зои Салдана, Ченнинг Татум, Рон Перлман, Кристина Эпплгейт, Айс Кьюб, Кейт дель Кастильо, Гектор Элизондо, Дэнни Трехо, Карлос Аласраки
Описание: В мультфильме описывается романтическая история любви на фоне празднования Дня мертвых в Мексике.
Духи Ла Муэрте и Шибальба посещают городок Сан Анхель в День Мёртвых, где они заключают пари после того как встречают пару мальчишек, Маноло и Хоакина, которые хотят завоевать сердце Марии.
Дополнительная информация:

Семпл: http://multi-up.com/1042328
Качество: BDRip 1080p
Формат: MKV
Видео: MPEG4 Video (H264) 1920x802 (79:33) 23.976fps 10.8 Mbps
Аудио: Russian AC-3 48.0 KHz 6 ch 384 Kbps iTunes
Аудио 2: Russian AC-3 48.0 KHz 6 ch 384 Kbps Pirat Studio
Аудио 3: English DTS 48.0 KHz 6 ch 1 509 Kbps Original
Аудио 4: English AC-3 48.0 KHz 2 ch 224 Kbps Commentary
Субтитры: Rus [Forced, Full], Eng [Full, SDH]

Подробные технические данные

GeneralUnique ID : 217993858484307367843891691564706573712 (0xA400170895B765CA9FAD3A9684382D90)Complete name : C:\Users\Вика\Desktop\The.Book.of.Life.2014.BDRip.1080p.mkvFormat : MatroskaFormat version : Version 4 / Version 2File size : 8.87 GiBDuration : 1h 35mnOverall bit rate : 13.3 MbpsEncoded date : UTC 2015-04-06 06:00:28Writing application : mkvmerge v7.4.0 ('Circles') 64bit built on Dec 12 2014 12:19:56Writing library : libebml v1.3.0 + libmatroska v1.4.1_STATISTICS_WRITING_APP : mkvmerge v7.4.0 ('Circles') 64bit built on Dec 12 2014 12:19:56_STATISTICS_WRITING_DATE_UTC : 2015-04-06 06:00:28_STATISTICS_TAGS : BPS DURATION NUMBER_OF_FRAMES NUMBER_OF_BYTESDURATION : 01:35:27.264000000NUMBER_OF_FRAMES : 178977NUMBER_OF_BYTES : 274908672
VideoID : 1Format : AVCFormat/Info : Advanced Video CodecFormat profile : [email protected] settings, CABAC : YesFormat settings, ReFrames : 5 framesCodec ID : V_MPEG4/ISO/AVCDuration : 1h 35mnBit rate : 10.8 MbpsWidth : 1 920 pixelsHeight : 802 pixelsDisplay aspect ratio : 2.40:1Frame rate mode : ConstantFrame rate : 23.976 fpsColor space : YUVChroma subsampling : 4:2:0Bit depth : 8 bitsScan type : ProgressiveBits/(Pixel*Frame) : 0.293Stream size : 7.02 GiB (79%)Title : [email protected] Profile L4.1, 24/1.001 fps @ 10800 kbpsWriting library : x264 core 144 r2525 40bb568Encoding settings : cabac=1 / ref=5 / deblock=1:-3:-3 / analyse=0x3:0x133 / me=umh / subme=11 / psy=1 / psy_rd=0.60:0.00 / mixed_ref=1 / me_range=32 / chroma_me=1 / trellis=2 / 8x8dct=1 / cqm=0 / deadzone=21,11 / fast_pskip=0 / chroma_qp_offset=-2 / threads=6 / lookahead_threads=1 / sliced_threads=0 / nr=0 / decimate=0 / interlaced=0 / bluray_compat=0 / constrained_intra=0 / bframes=6 / b_pyramid=2 / b_adapt=2 / b_bias=0 / direct=3 / weightb=1 / open_gop=0 / weightp=2 / keyint=240 / keyint_min=23 / scenecut=40 / intra_refresh=0 / rc_lookahead=60 / rc=2pass / mbtree=1 / bitrate=10800 / ratetol=1.0 / qcomp=0.60 / qpmin=0 / qpmax=69 / qpstep=4 / cplxblur=20.0 / qblur=0.5 / vbv_maxrate=45000 / vbv_bufsize=45000 / nal_hrd=none / filler=0 / ip_ratio=1.40 / aq=1:0.60Language : EnglishDefault : YesForced : No_STATISTICS_WRITING_APP : mkvmerge v7.4.0 ('Circles') 64bit built on Dec 12 2014 12:19:56_STATISTICS_WRITING_DATE_UTC : 2015-04-06 06:00:28_STATISTICS_TAGS : BPS DURATION NUMBER_OF_FRAMES NUMBER_OF_BYTESDURATION : 01:35:24.636000000NUMBER_OF_FRAMES : 137254NUMBER_OF_BYTES : 7727469182
Audio #1ID : 2Format : AC-3Format/Info : Audio Coding 3Mode extension : CM (complete main)Format settings, Endianness : BigCodec ID : A_AC3Duration : 1h 35mnBit rate mode : ConstantBit rate : 384 KbpsChannel(s) : 6 channelsChannel positions : Front: L C R, Side: L R, LFESampling rate : 48.0 KHzBit depth : 16 bitsCompression mode : LossyStream size : 262 MiB (3%)Title : iTunesLanguage : RussianDefault : YesForced : No
Audio #2ID : 3Format : AC-3Format/Info : Audio Coding 3Mode extension : CM (complete main)Format settings, Endianness : BigCodec ID : A_AC3Duration : 1h 35mnBit rate mode : ConstantBit rate : 384 KbpsChannel(s) : 6 channelsChannel positions : Front: L C R, Side: L R, LFESampling rate : 48.0 KHzBit depth : 16 bitsCompression mode : LossyStream size : 262 MiB (3%)Title : Pirat StudioLanguage : RussianDefault : NoForced : No
Audio #3ID : 4Format : DTSFormat/Info : Digital Theater SystemsMode : 16Format settings, Endianness : BigCodec ID : A_DTSDuration : 1h 35mnBit rate mode : ConstantBit rate : 1 509 KbpsChannel(s) : 6 channelsChannel positions : Front: L C R, Side: L R, LFESampling rate : 48.0 KHzBit depth : 24 bitsCompression mode : LossyStream size : 1.01 GiB (11%)Title : English DTS Master Audio 5.1 @ 1 509 KbpsLanguage : EnglishDefault : NoForced : No
Audio #4ID : 5Format : AC-3Format/Info : Audio Coding 3Mode extension : CM (complete main)Format settings, Endianness : BigCodec ID : A_AC3Duration : 1h 35mnBit rate mode : ConstantBit rate : 224 KbpsChannel(s) : 2 channelsChannel positions : Front: L RSampling rate : 48.0 KHzBit depth : 16 bitsCompression mode : LossyStream size : 153 MiB (2%)Title : English Dolby Digital Audio 2.0 @ 224 kbps CommentaryLanguage : EnglishDefault : NoForced : No
Text #1ID : 6Format : UTF-8Codec ID : S_TEXT/UTF8Codec ID/Info : UTF-8 Plain TextTitle : ForcedLanguage : RussianDefault : NoForced : No
Text #2ID : 7Format : UTF-8Codec ID : S_TEXT/UTF8Codec ID/Info : UTF-8 Plain TextTitle : FullLanguage : RussianDefault : NoForced : No
Text #3ID : 8Format : UTF-8Codec ID : S_TEXT/UTF8Codec ID/Info : UTF-8 Plain TextTitle : FullLanguage : EnglishDefault : NoForced : No
Text #4ID : 9Format : UTF-8Codec ID : S_TEXT/UTF8Codec ID/Info : UTF-8 Plain TextTitle : SDHLanguage : EnglishDefault : NoForced : No
Menu00:00:00.000 : en:00:00:00.00000:02:58.053 : en:00:02:58.05300:05:39.631 : en:00:05:39.63100:08:35.014 : en:00:08:35.01400:12:08.478 : en:00:12:08.47800:15:07.698 : en:00:15:07.69800:19:24.246 : en:00:19:24.24600:22:20.089 : en:00:22:20.08900:26:08.150 : en:00:26:08.15000:28:59.571 : en:00:28:59.57100:33:02.147 : en:00:33:02.14700:37:25.952 : en:00:37:25.95200:41:07.090 : en:00:41:07.09000:43:14.634 : en:00:43:14.63400:47:02.486 : en:00:47:02.48600:50:53.050 : en:00:50:53.05000:53:13.232 : en:00:53:13.23200:56:30.220 : en:00:56:30.22001:00:16.279 : en:01:00:16.27901:03:57.792 : en:01:03:57.79201:06:48.379 : en:01:06:48.37901:09:09.896 : en:01:09:09.89601:11:52.016 : en:01:11:52.01601:15:53.215 : en:01:15:53.21501:18:52.770 : en:01:18:52.77001:21:13.410 : en:01:21:13.41001:23:33.842 : en:01:23:33.84201:27:11.893 : en:01:27:11.893

Скриншоты

[Цитировать]



Показать сообщения:    

Текущее время: 05-Дек 15:37

Часовой пояс: UTC + 3


Вы не можете начинать темы
Вы не можете отвечать на сообщения
Вы не можете редактировать свои сообщения
Вы не можете удалять свои сообщения
Вы не можете голосовать в опросах
Вы не можете прикреплять файлы к сообщениям
Вы не можете скачивать файлы

!ВНИМАНИЕ!
Сайт не предоставляет электронные версии произведений, а занимается лишь коллекционированием и каталогизацией ссылок, присылаемых и публикуемых на форуме нашими читателями. Если вы являетесь правообладателем какого-либо представленного материала и не желаете, чтобы ссылка на него находилась в нашем каталоге, свяжитесь с нами, и мы незамедлительно удалим ее. Файлы для обмена на трекере предоставлены пользователями сайта, и администрация не несет ответственности за их содержание. Просьба не заливать файлы, защищенные авторскими правами, а также файлы нелегального содержания!