[ Сегодня идет свободное скачивание без начисления Download ]


Статистика раздачи
Нет
 
   
 
Top  
 
 
| || BDRip 1080p, 8.01 GB |- P R E S E N T SСезон охоты / Open Season- Страна: США
Жанр: мультфильм, комедия, приключения, семейный
Продолжительность: 01:26:15
Год выпуска: 2006
Перевод 1: Профессиональный (полное дублирование)
Перевод 2: Профессиональный (двухголосый закадровый) Петр Гланц и Инна Королёва
Субтитры: есть-Режиссёр: Роджер Аллерс, Джилл Калтон, Энтони Стаччи / Roger Allers, Jill Culton, Anthony Stacchi
Роли озвучивали: Мартин Лоуренс, Эштон Кутчер, Гэри Синиз, Дебра Мессинг, Билли Коннолли, Джорджия Энджел, Джон Фавро, Джейн Краковски, Гордон Тутусис, Патрик Варбертон, Коуди Камерон, Ника Футтерман, Дэнни Манн, Джек МакГи, Мишель Мурдокка, Фергал Рейли, Мэтью В. Тейлор, Кирк Бейли, Джек Блессинг, Ранджани Броу...
Роли дублировали: Фёдор Бондарчук, Олег Куликович, Михаил Боярский, Ксения Бржезовская, Максим Сергеев, Елена Соловьева, Алексей Гурьев, Елена Шульман, Анатолий Петров, Валерий Соловьев, Вадим Романов, Светлана Кузнецова, Сергей Дьячков, Ирина Ракшина, Иван Паршин, Юрий Лазарев, Роман Рязанцев и др.- | | -Описание: Выросший среди людей гризли оказывается в лесу в самый разгар охотничьего сезона. И пока ухаживавший за медведем егерь ищет своего воспитанника, гризли водит дружбу с лесным оленем...-Доп. информация: BDRip 1080p сделан с Blu-Ray диска Open Season (2006) Blu-ray CEE 1080p AVC DD5.1 (Локализованный видеоряд).-Сэмпл/Sample (89.9 MB, 1 минута)-Качество: BDRip 1080р
Формат: MKV
Видео: 1920x1040 (1.85:1), 23,976 fps, ~9668 kbps avg, 0.202 bit/pixel
Аудио #1: Русский, AC3, 6 ch, 48 kHz, 640 kbps - Дубляж | BD CEE
Аудио #2: Русский, AC3, 6 ch, 48 kHz, 640 kbps - DVO | Петр Гланц и Инна Королёва
Аудио #3: Украинский, AC3, 6 ch, 48 kHz, 640 kbps - Дубляж | BD CEE
Аудио #4: English, DTS / 5.1 / 48 kHz / 1509 kbps / 16bit - Original
Аудио #5: English, AC3, Surround, 2 ch, 48 kHz, 192 kbps - Commentary With The Filmmakers Behind Open Season
Субтитры: Русские (полные by Ivan, форсированные), English (Full)
Навигация по главам: есть (16 не именованных глав)

MediaInfo / x264Log

x264Log
raw [info]: 1920x1040p 1:1 @ 24000/1001 fps (cfr)x264 [info]: using SAR=1/1x264 [info]: using cpu capabilities: MMX2 SSE2Fast SSSE3 SSE4.2 AVX XOP FMA4 FMA3 LZCNT BMI1x264 [info]: profile High, level 4.1x264 [info]: frame I:1018 Avg QP:12.18 size:317920 PSNR Mean Y:50.66 U:52.63 V:52.76 Avg:51.22 Global:50.52x264 [info]: frame P:34893 Avg QP:14.57 size: 92087 PSNR Mean Y:48.98 U:51.61 V:51.68 Avg:49.67 Global:48.81x264 [info]: frame B:88167 Avg QP:17.50 size: 30798 PSNR Mean Y:48.29 U:51.30 V:51.39 Avg:49.04 Global:47.95x264 [info]: consecutive B-frames: 5.0% 7.6% 9.0% 47.3% 8.7% 19.6% 0.7% 0.7% 0.1% 0.1% 0.3% 0.7% 0.2%x264 [info]: mb I I16..4: 8.9% 64.9% 26.2%x264 [info]: mb P I16..4: 2.0% 19.8% 4.4% P16..4: 19.0% 19.5% 8.9% 3.0% 0.3% skip:23.0%x264 [info]: mb B I16..4: 0.4% 3.6% 0.5% B16..8: 23.7% 14.0% 2.5% direct: 4.2% skip:51.1% L0:39.6% L1:44.8% BI:15.6%x264 [info]: 8x8 transform intra:75.9% inter:45.5%x264 [info]: coded y,uvDC,uvAC intra: 84.8% 82.2% 64.3% inter: 18.4% 12.6% 3.7%x264 [info]: i16 v,h,dc,p: 37% 14% 9% 41%x264 [info]: i8 v,h,dc,ddl,ddr,vr,hd,vl,hu: 12% 12% 13% 8% 10% 10% 11% 11% 13%x264 [info]: i4 v,h,dc,ddl,ddr,vr,hd,vl,hu: 15% 12% 14% 7% 12% 10% 11% 8% 11%x264 [info]: i8c dc,h,v,p: 37% 29% 20% 15%x264 [info]: Weighted P-Frames: Y:3.8% UV:3.3%x264 [info]: ref P L0: 68.6% 9.5% 15.2% 5.8% 0.9% 0.0%x264 [info]: ref B L0: 90.7% 7.6% 1.7%x264 [info]: ref B L1: 95.7% 4.3%x264 [info]: SSIM Mean Y:0.9898678 (19.943db)x264 [info]: PSNR Mean Y:48.503 U:51.398 V:51.482 Avg:49.237 Global:48.191 kb/s:9668.08encoded 124078 frames, 5.25 fps, 9668.08 kb/s
GeneralUnique ID : 196624098532909773917589327156828579197 (0x93EC6C85B6032D4D98A4C8905E96257D)Complete name : Open.Season.2006.Rus.Video.BDRip.1080p.dfcbit.mkvFormat : MatroskaFormat version : Version 2File size : 8.01 GiBDuration : 1h 26mnOverall bit rate : 13.3 MbpsEncoded date : UTC 2014-06-12 15:58:23Writing application : mkvmerge v4.0.0 ('The Stars were mine') built on Jun 6 2010 16:18:42Writing library : libebml v1.0.0 + libmatroska v1.0.0
VideoID : 1Format : AVCFormat/Info : Advanced Video CodecFormat profile : High@L4.1Format settings, CABAC : YesFormat settings, ReFrames : 4 framesCodec ID : V_MPEG4/ISO/AVCDuration : 1h 26mnBit rate : 9 668 KbpsWidth : 1 920 pixelsHeight : 1 040 pixelsDisplay aspect ratio : 1.85:1Frame rate mode : ConstantFrame rate : 23.976 fpsColor space : YUVChroma subsampling : 4:2:0Bit depth : 8 bitsScan type : ProgressiveBits/(Pixel*Frame) : 0.202Stream size : 5.82 GiB (71%)Title : NTSC, 1920x1040 (1.85:1), BDRip 1080p - tRuAVC & Multfilmy [DFCbit]Writing library : x264 core 142 r2431kMod ac76440Encoding settings : cabac=1 / ref=4 / deblock=1:-2:-1 / analyse=0x3:0x133 / me=umh / subme=11 / psy=1 / fade_compensate=0.00 / psy_rd=0.63:0.00 / mixed_ref=1 / me_range=32 / chroma_me=1 / trellis=2 / 8x8dct=1 / cqm=0 / deadzone=21,11 / fast_pskip=0 / chroma_qp_offset=-2 / threads=12 / lookahead_threads=3 / sliced_threads=0 / nr=0 / decimate=1 / interlaced=0 / bluray_compat=0 / constrained_intra=0 / fgo=0 / bframes=12 / b_pyramid=2 / b_adapt=2 / b_bias=0 / direct=1 / weightb=1 / open_gop=0 / weightp=2 / keyint=250 / keyint_min=23 / scenecut=40 / intra_refresh=0 / rc_lookahead=70 / rc=2pass / mbtree=0 / bitrate=9668 / ratetol=1.0 / qcomp=0.81 / qpmin=0 / qpmax=69 / qpstep=4 / cplxblur=20.0 / qblur=0.5 / vbv_maxrate=50000 / vbv_bufsize=62500 / nal_hrd=none / filler=0 / ip_ratio=1.40 / pb_ratio=1.30 / aq=3:0.90Language : RussianDefault : YesForced : NoColor primaries : BT.709Transfer characteristics : BT.709Matrix coefficients : BT.709
Audio #1ID : 2Format : AC-3Format/Info : Audio Coding 3Mode extension : CM (complete main)Format settings, Endianness : BigCodec ID : A_AC3Duration : 1h 26mnBit rate mode : ConstantBit rate : 640 KbpsChannel(s) : 6 channelsChannel positions : Front: L C R, Side: L R, LFESampling rate : 48.0 KHzBit depth : 16 bitsCompression mode : LossyStream size : 395 MiB (5%)Title : AC3, 6 ch, 48 kHz, 640 kbps - Дубляж | BD CEELanguage : RussianDefault : YesForced : No
Audio #2ID : 3Format : AC-3Format/Info : Audio Coding 3Mode extension : CM (complete main)Format settings, Endianness : BigCodec ID : A_AC3Duration : 1h 26mnBit rate mode : ConstantBit rate : 640 KbpsChannel(s) : 6 channelsChannel positions : Front: L C R, Side: L R, LFESampling rate : 48.0 KHzBit depth : 16 bitsCompression mode : LossyStream size : 395 MiB (5%)Title : AC3, 6 ch, 48 kHz, 640 kbps - DVO | Петр Гланц и Инна КоролёваLanguage : RussianDefault : NoForced : No
Audio #3ID : 4Format : AC-3Format/Info : Audio Coding 3Mode extension : CM (complete main)Format settings, Endianness : BigCodec ID : A_AC3Duration : 1h 26mnBit rate mode : ConstantBit rate : 640 KbpsChannel(s) : 6 channelsChannel positions : Front: L C R, Side: L R, LFESampling rate : 48.0 KHzBit depth : 16 bitsCompression mode : LossyStream size : 395 MiB (5%)Title : AC3, 6 ch, 48 kHz, 640 kbps - Дубляж | BD CEELanguage : UkrainianDefault : NoForced : No
Audio #4ID : 5Format : DTSFormat/Info : Digital Theater SystemsMode : 16Format settings, Endianness : BigCodec ID : A_DTSDuration : 1h 26mnBit rate mode : ConstantBit rate : 1 509 KbpsChannel(s) : 6 channelsChannel positions : Front: L C R, Side: L R, LFESampling rate : 48.0 KHzBit depth : 16 bitsCompression mode : LossyStream size : 931 MiB (11%)Title : DTS / 5.1 / 48 kHz / 1509 kbps / 16bit - OriginalLanguage : EnglishDefault : NoForced : No
Audio #5ID : 6Format : AC-3Format/Info : Audio Coding 3Format profile : Dolby DigitalMode extension : CM (complete main)Format settings, Endianness : BigCodec ID : A_AC3Duration : 1h 26mnBit rate mode : ConstantBit rate : 192 KbpsChannel(s) : 2 channelsChannel positions : Front: L RSampling rate : 48.0 KHzBit depth : 16 bitsCompression mode : LossyStream size : 118 MiB (1%)Title : AC3, Surround, 2 ch, 48 kHz, 192 kbps - Commentary With The Filmmakers Behind Open SeasonLanguage : EnglishDefault : NoForced : No
Text #1ID : 7Format : UTF-8Codec ID : S_TEXT/UTF8Codec ID/Info : UTF-8 Plain TextTitle : SRT, Full by IvanLanguage : RussianDefault : NoForced : No
Text #2ID : 8Format : UTF-8Codec ID : S_TEXT/UTF8Codec ID/Info : UTF-8 Plain TextTitle : SRT, ForcedLanguage : RussianDefault : NoForced : No
Text #3ID : 9Format : UTF-8Codec ID : S_TEXT/UTF8Codec ID/Info : UTF-8 Plain TextTitle : SRT, FullLanguage : EnglishDefault : NoForced : No
Menu00:00:00.000 : en:Chapter 100:05:59.985 : en:Chapter 200:09:12.969 : en:Chapter 300:16:57.016 : en:Chapter 400:21:28.704 : en:Chapter 500:23:41.837 : en:Chapter 600:28:17.779 : en:Chapter 700:33:53.615 : en:Chapter 800:38:15.752 : en:Chapter 900:45:34.023 : en:Chapter 1000:50:20.726 : en:Chapter 1100:56:51.617 : en:Chapter 1201:02:02.552 : en:Chapter 1301:07:43.601 : en:Chapter 1401:12:14.330 : en:Chapter 1501:14:59.120 : en:Chapter 16

Скриншоты

Скриншот с названием мультфильма (Локализация)
--BDRip 1080p


Source Blu-Ray

[Цитировать]



Показать сообщения:    

Текущее время: 07-Дек 19:32

Часовой пояс: UTC + 3


Вы не можете начинать темы
Вы не можете отвечать на сообщения
Вы не можете редактировать свои сообщения
Вы не можете удалять свои сообщения
Вы не можете голосовать в опросах
Вы не можете прикреплять файлы к сообщениям
Вы не можете скачивать файлы

!ВНИМАНИЕ!
Сайт не предоставляет электронные версии произведений, а занимается лишь коллекционированием и каталогизацией ссылок, присылаемых и публикуемых на форуме нашими читателями. Если вы являетесь правообладателем какого-либо представленного материала и не желаете, чтобы ссылка на него находилась в нашем каталоге, свяжитесь с нами, и мы незамедлительно удалим ее. Файлы для обмена на трекере предоставлены пользователями сайта, и администрация не несет ответственности за их содержание. Просьба не заливать файлы, защищенные авторскими правами, а также файлы нелегального содержания!