[ Сегодня идет свободное скачивание без начисления Download ]


Статистика раздачи
Нет
 
   
 
Top  
 
 
Школа монстров: Мотор! / Monster High: Fright On!
Страна: США
Жанр: Мультипликация
Продолжительность: 00:46:03
Год выпуска: 2011
Перевод: Профессиональный (дублированный)
Русские субтитры: нет-Режиссёр: Виктор Даль Челе / Victor Dal Chela
Роли озвучивали: Лора Бэйли, Оги Бэнкс, Кэм Кларк, Деби Дерриберри, Эрин Фицджералд, Кейт Хиггинс, Оду Паден, Синди Робинсон-Описание: В Школе монстров важное событие! Благодаря тому, что в этой школе, в мире и гармонии живут монстры всех мастей, её решили расширить! В скором будущем, в неё прибудут два самых больших клана - вампиры и оборотни. Однако их прошлое не столь безмятежное, как вы могли бы подумать - монстры этих двух кланов издавна не любят друг друга и между ними идёт негласная война, а учитывая тот факт, что теперь они будут ещё и учиться вместе, то можно предположить что открытое столкновение этих двух кланов просто неизбежно. Клыки против шерсти - кто же победит? Или, быть может, нашим подругам удастся помирить две издавна враждующие стороны?!-Качество: BDRip 1080p
Формат: MKV
Видео: AVC, 1920x1080 (16:9), 23.976 fps, 5 272 Kbps (0.106 bit/pixel)
Аудио 1: AC-3, 48.0 KHz, 2 ch, 192 Kbps, CBR (Russian)
Аудио 2: DTS, 48.0 KHz, 6 ch, 1 510 Kbps, CBR (English)
Субтитры: English
Семпл: Забираем тут

Подробные технические данные

ОбщееУникальный идентификатор : 201183096870017853619041333343965773973 (0x975A747E97C0790F83AD3B7BBF618095)Полное имя : Monster High Fright On 2011 bdrip 1080p.mkvФормат : MatroskaВерсия формата : Version 4 / Version 2Размер файла : 2,24 ГбайтПродолжительность : 46 м.Общий поток : 6976 Кбит/секДата кодирования : UTC 2014-08-11 15:29:03Программа кодирования : mkvmerge v7.1.0 ('Good Love') 64bit built on Jul 27 2014 13:06:55Библиотека кодирования : libebml v1.3.0 + libmatroska v1.4.1DURATION : 00:44:30.543000000NUMBER_OF_FRAMES : 931NUMBER_OF_BYTES : 31196_STATISTICS_WRITING_APP : mkvmerge v7.1.0 ('Good Love') 64bit built on Jul 27 2014 13:06:55_STATISTICS_WRITING_DATE_UTC : 2014-08-11 15:29:03_STATISTICS_TAGS : BPS DURATION NUMBER_OF_FRAMES NUMBER_OF_BYTES
ВидеоИдентификатор : 1Формат : AVCФормат/Информация : Advanced Video CodecПрофиль формата : High@L4.1Параметр CABAC формата : ДаПараметр ReFrames формата : 4 кадраИдентификатор кодека : V_MPEG4/ISO/AVCПродолжительность : 46 м.Битрейт : 5272 Кбит/секШирина : 1920 пикселейВысота : 1080 пикселейСоотношение сторон : 16:9Режим частоты кадров : ПостоянныйЧастота кадров : 23,976 кадра/секЦветовое пространство : YUVСубдискретизация насыщенности : 4:2:0Битовая глубина : 8 битТип развёртки : ПрогрессивнаяБит/(Пиксели*Кадры) : 0.106Размер потока : 1,65 Гбайт (74%)Библиотека кодирования : x264 core 142 r2453 ea0ca51Настройки программы : cabac=1 / ref=4 / deblock=1:0:0 / analyse=0x3:0x133 / me=umh / subme=7 / psy=1 / psy_rd=1.00:0.00 / mixed_ref=1 / me_range=16 / chroma_me=1 / trellis=1 / 8x8dct=1 / cqm=0 / deadzone=21,11 / fast_pskip=0 / chroma_qp_offset=-2 / threads=30 / lookahead_threads=5 / sliced_threads=0 / nr=0 / decimate=1 / interlaced=0 / bluray_compat=0 / constrained_intra=0 / bframes=3 / b_pyramid=2 / b_adapt=2 / b_bias=0 / direct=3 / weightb=1 / open_gop=0 / weightp=2 / keyint=240 / keyint_min=23 / scenecut=40 / intra_refresh=0 / rc_lookahead=50 / rc=2pass / mbtree=1 / bitrate=5272 / ratetol=1.0 / qcomp=0.60 / qpmin=0 / qpmax=69 / qpstep=4 / cplxblur=20.0 / qblur=0.5 / ip_ratio=1.40 / aq=1:1.00Язык : EnglishDefault : ДаForced : НетDURATION : 00:46:03.094000000NUMBER_OF_FRAMES : 66248NUMBER_OF_BYTES : 1820807025_STATISTICS_WRITING_APP : mkvmerge v7.1.0 ('Good Love') 64bit built on Jul 27 2014 13:06:55_STATISTICS_WRITING_DATE_UTC : 2014-08-11 15:29:03_STATISTICS_TAGS : BPS DURATION NUMBER_OF_FRAMES NUMBER_OF_BYTES
Аудио #1Идентификатор : 2Формат : AC-3Формат/Информация : Audio Coding 3Расширение режима : CM (complete main)Параметр Endianness формата : BigИдентификатор кодека : A_AC3Продолжительность : 46 м.Вид битрейта : ПостоянныйБитрейт : 192 Кбит/секКаналы : 2 каналаРасположение каналов : Front: L RЧастота : 48,0 КГцБитовая глубина : 16 битМетод сжатия : С потерямиРазмер потока : 63,2 Мбайт (3%)Язык : RussianDefault : ДаForced : Нет
Аудио #2Идентификатор : 3Формат : DTSФормат/Информация : Digital Theater SystemsРежим : 16Параметр Endianness формата : BigИдентификатор кодека : A_DTSПродолжительность : 46 м.Вид битрейта : ПостоянныйБитрейт : 1509 Кбит/секКаналы : 6 каналовРасположение каналов : Front: L C R, Side: L R, LFEЧастота : 48,0 КГцБитовая глубина : 24 битМетод сжатия : С потерямиРазмер потока : 497 Мбайт (22%)Язык : EnglishDefault : НетForced : Нет
ТекстИдентификатор : 4Формат : UTF-8Идентификатор кодека : S_TEXT/UTF8Идентификатор кодека/Информация : UTF-8 Plain TextЯзык : EnglishDefault : НетForced : Нет
Меню00:00:00.000 : :00:00:00.00000:00:32.991 : :00:00:32.99100:10:07.106 : :00:10:07.10600:17:32.718 : :00:17:32.71800:23:55.559 : :00:23:55.55900:30:00.048 : :00:30:00.04800:35:48.855 : :00:35:48.85500:45:31.062 : :00:45:31.062

Скриншоты


[Цитировать]



Показать сообщения:    

Текущее время: 01-Май 12:21

Часовой пояс: UTC + 6


Вы не можете начинать темы
Вы не можете отвечать на сообщения
Вы не можете редактировать свои сообщения
Вы не можете удалять свои сообщения
Вы не можете голосовать в опросах
Вы не можете прикреплять файлы к сообщениям
Вы не можете скачивать файлы

!ВНИМАНИЕ!
Сайт не предоставляет электронные версии произведений, а занимается лишь коллекционированием и каталогизацией ссылок, присылаемых и публикуемых на форуме нашими читателями. Если вы являетесь правообладателем какого-либо представленного материала и не желаете, чтобы ссылка на него находилась в нашем каталоге, свяжитесь с нами, и мы незамедлительно удалим ее. Файлы для обмена на трекере предоставлены пользователями сайта, и администрация не несет ответственности за их содержание. Просьба не заливать файлы, защищенные авторскими правами, а также файлы нелегального содержания!