[ Сегодня идет свободное скачивание без начисления Download ]


Статистика раздачи
Скачал: [ 1 ]
 
   
 
Top  
 
 
Снежная королева 2: Перезаморозка
Страна: Россия
Жанр: Фэнтези, Приключения, Семейный
Продолжительность: 01:18:20
Год выпуска: 2014
Перевод: Не требуется
Русские субтитры: нет
Режиссёр: Алексей Цицилин
Роли озвучивали: Иван Охлобыстин, Нюша Шурочкина, Анна Хилькевич, Александр Уман, Игорь Бортник, Алексей Лихницкий, Роман Юнусов, Александр Гудков, Михаил Тихонов
Описание: Тщеславный тролль Орм давно мечтает о лаврах героя, и наконец получает этот шанс: северный ветер грозит миру вечной зимой и похищает Марибель. Рука принцессы и королевство троллей достанутся тому, кто вызволит ее из снежного плена. Однажды Орм победил зиму с помощью друзей, теперь он хочет действовать в одиночку. На нем доспехи из сковородок, за ним — отряд трусливых троллей, а впереди — опасный путь к замку Снежной королевы. Но, к счастью, друзья не помнят обид: храбрая Герда, застенчивый Кай, удалая Альфида и весёлая Лута не бросят Орма в беде. А значит их ждут невероятные приключения!
Дополнительная информация: http://www.imdb.com/title/tt3477554/ http://www.kinopoisk.ru/film/718559/
Семпл: http://sendfile.su/1079498
Качество: WEB-DL.720p
Формат: MKV
Видео: MPEG-4 AVC/H.264 , ~3927 Kbps , 1280x540 .
Аудио: AC3 5.1 , 384 Kbps .
Субтитры: отсутствуют

Подробные технические данные

ОбщееУникальный идентификатор : 179645587367638305408886879079150514500 (0x87267B4AB77B8102942CBAEE717DF144)Полное имя : C:\downloads\Видео\Snegnaya.Koroleva.2.Perezamorozka.2014.O.WEB-DL.720p.mkvФормат : MatroskaВерсия формата : Version 4 / Version 2Размер файла : 2,41 ГбайтПродолжительность : 1 ч. 18 м.Общий поток : 4398 Кбит/секДата кодирования : UTC 2015-01-29 07:29:04Программа кодирования : mkvmerge v6.1.0 ('Old Devil') built on Mar 4 2013 09:10:42Библиотека кодирования : libebml v1.3.0 + libmatroska v1.4.0
ВидеоИдентификатор : 1Формат : AVCФормат/Информация : Advanced Video CodecПрофиль формата : Main@L3.1Параметр CABAC формата : НетПараметр ReFrames формата : 2 кадраИдентификатор кодека : V_MPEG4/ISO/AVCПродолжительность : 1 ч. 18 м.Битрейт : 3927 Кбит/секШирина : 1280 пикселейВысота : 540 пикселейСоотношение сторон : 2,40:1Режим частоты кадров : ПостоянныйЧастота кадров : 24,000 кадра/секЦветовое пространство : YUVСубдискретизация насыщенности : 4:2:0Битовая глубина : 8 битТип развёртки : ПрогрессивнаяБит/(Пиксели*Кадры) : 0.237Размер потока : 2,15 Гбайт (89%)Язык : RussianDefault : ДаForced : НетОсновные цвета : BT.709Характеристики трансфера : BT.709Коэффициенты матрицы : BT.709colour_range : Limited
АудиоИдентификатор : 2Формат : AC-3Формат/Информация : Audio Coding 3Расширение режима : CM (complete main)Параметр Endianness формата : BigИдентификатор кодека : A_AC3Продолжительность : 1 ч. 18 м.Вид битрейта : ПостоянныйБитрейт : 384 Кбит/секКаналы : 6 каналовРасположение каналов : Front: L C R, Side: L R, LFEЧастота : 48,0 КГцБитовая глубина : 16 битМетод сжатия : С потерямиРазмер потока : 215 Мбайт (9%)Язык : RussianDefault : ДаForced : Нет
Меню00:00:00.000 : en:Глава 100:05:00.000 : en:Глава 200:09:13.000 : en:Глава 300:14:18.000 : en:Глава 400:20:49.000 : en:Глава 500:26:41.000 : en:Глава 600:32:15.000 : en:Глава 700:37:27.000 : en:Глава 800:41:54.000 : en:Глава 900:47:19.000 : en:Глава 1000:52:57.000 : en:Глава 1100:57:09.000 : en:Глава 1201:01:48.000 : en:Глава 1301:06:38.000 : en:Глава 1401:10:37.000 : en:Глава 15

Скриншоты

[Цитировать]



Показать сообщения:    

Текущее время: 10-Дек 04:03

Часовой пояс: UTC + 3


Вы не можете начинать темы
Вы не можете отвечать на сообщения
Вы не можете редактировать свои сообщения
Вы не можете удалять свои сообщения
Вы не можете голосовать в опросах
Вы не можете прикреплять файлы к сообщениям
Вы не можете скачивать файлы

!ВНИМАНИЕ!
Сайт не предоставляет электронные версии произведений, а занимается лишь коллекционированием и каталогизацией ссылок, присылаемых и публикуемых на форуме нашими читателями. Если вы являетесь правообладателем какого-либо представленного материала и не желаете, чтобы ссылка на него находилась в нашем каталоге, свяжитесь с нами, и мы незамедлительно удалим ее. Файлы для обмена на трекере предоставлены пользователями сайта, и администрация не несет ответственности за их содержание. Просьба не заливать файлы, защищенные авторскими правами, а также файлы нелегального содержания!