[ Сегодня идет свободное скачивание без начисления Download ]


Статистика раздачи
Нет
 
   
 
Top  
 
 
-Стражи Галактики / Guardians of the Galaxy (2014) BDRip [720p] [IMAX] [hand made 60fps]«Мстители спасают лишь Землю бренную, а эти ребята спасают Вселенную»- Год выпуска: 2014
Производство: США, Великобритания / Marvel Enterprises, Moving Picture Company, The
Жанр: Фантастика, боевик, приключения
Режиссер: Джеймс Ганн
Продюсер: Кевин Файги, Виктория Алонсо, Луис Д’Эспозито
Актеры: Крис Прэтт, Зои Салдана, Дэйв Батиста, Брэдли Купер, Вин Дизель, Ли Пейс, Майкл Рукер, Карен Гиллан, Гленн Клоуз, Джимон Хонсу
Описание фильма:
Отважному путешественнику Питеру Квиллу попадает в руки таинственный артефакт, принадлежащий могущественному и безжалостному злодею Ронану, строящему коварные планы по захвату Вселенной. Питер оказывается в центре межгалактической охоты, где жертва — он сам...
Перевод: Дублированный (Лицензия)
Субтитры: Вшитые,Не отключаемые
Язык субтитров: Русский (Forsed)

Дата мировой премьеры: 21 июля 2014, США Лос-Анджелес, Калифорния
Дата российской премьеры: 31 июля 2014, «WDSSPR»
Дата выхода DVD релиза: 2 декабря 2014, «Уолт Дисней Компани СНГ»
Дата выхода Blu-Ray релиза: 2 декабря 2014, «Уолт Дисней Компани СНГ»
Продолжительность: 02:00:51
Качество видео: BDRip 720p [profile-LQ]
Видеокодек: MPEG-4 AVC/H.264
Битрейт видео: ~ 10,0 Мбит/сек
Размер кадра: 1280 x 720
Аудио: AC3 5.1, 48.0 KHz, 640 Kbps - Русский

MediaInfo:

Общее
Уникальный идентификатор : 196638705373333471864353391455742211509 (0x93EF3CB1F4EC50D597F41C28590C35B5)
Полное имя : D:\Торренты\Guardians of the Galaxy 60fps.mkv
Формат : Matroska
Версия формата : Version 2
Размер файла : 9,18 Гбайт
Продолжительность : 2 ч. 0 м.
Общий поток : 10,9 Мбит/сек
Название фильма : Guardians of the Galaxy (2014) BDRemux 1080p IMAX
Дата кодирования : UTC 2014-11-22 16:15:50
Программа кодирования : mkvmerge v6.9.1 ('Blue Panther') 64bit built on Apr 18 2014 18:23:38
Библиотека кодирования : libebml v1.3.0 + libmatroska v1.4.1
Видео
Идентификатор : 1
Формат : AVC
Формат/Информация : Advanced Video Codec
Профиль формата : [email protected]
Параметр CABAC формата : Да
Параметр ReFrames формата : 6 кадров
Идентификатор кодека : V_MPEG4/ISO/AVC
Продолжительность : 2 ч. 0 м.
Битрейт : 10,0 Мбит/сек
Ширина : 1280 пикселей
Высота : 720 пикселей
Соотношение сторон : 16:9
Режим частоты кадров : Постоянный
Частота кадров : 59,880 кадров/сек
Частота кадров в оригинале : 59,940 кадров/сек
Цветовое пространство : YUV
Субдискретизация насыщенности : 4:2:0
Битовая глубина : 8 бит
Тип развёртки : Прогрессивная
Бит/(Пиксели*Кадры) : 0.182
Размер потока : 8,46 Гбайт (92%)
Заголовок : Release by mimok
Библиотека кодирования : x264 core 125 r2208 d9d2288
Настройки программы : cabac=1 / ref=6 / deblock=0:0:0 / analyse=0x3:0x133 / me=umh / subme=8 / psy=1 / psy_rd=1.00:0.15 / mixed_ref=1 / me_range=20 / chroma_me=1 / trellis=2 / 8x8dct=1 / cqm=0 / deadzone=21,11 / fast_pskip=0 / chroma_qp_offset=-3 / threads=6 / lookahead_threads=1 / sliced_threads=0 / nr=0 / decimate=0 / interlaced=0 / bluray_compat=0 / constrained_intra=0 / bframes=8 / b_pyramid=2 / b_adapt=2 / b_bias=0 / direct=1 / weightb=1 / open_gop=0 / weightp=2 / keyint=600 / keyint_min=59 / scenecut=40 / intra_refresh=0 / rc=crf / mbtree=0 / crf=17.0 / qcomp=0.63 / qpmin=10 / qpmax=51 / qpstep=4 / ip_ratio=1.40 / pb_ratio=1.30 / aq=1:1.20
Default : Да
Forced : Нет
Аудио
Идентификатор : 2
Формат : AC-3
Формат/Информация : Audio Coding 3
Расширение режима : CM (complete main)
Параметр Endianness формата : Big
Идентификатор кодека : A_AC3
Продолжительность : 2 ч. 0 м.
Вид битрейта : Постоянный
Битрейт : 640 Кбит/сек
Каналы : 6 каналов
Расположение каналов : Front: L C R, Side: L R, LFE
Частота : 48,0 КГц
Битовая глубина : 16 бит
Метод сжатия : С потерями
Размер потока : 553 Мбайт (6%)
Заголовок : Лицензия!
Язык : Russian
Default : Да
Forced : Нет

Скринлист:

Скриншоты:

[Цитировать]



Показать сообщения:    

Текущее время: 04-Дек 21:30

Часовой пояс: UTC + 3


Вы не можете начинать темы
Вы не можете отвечать на сообщения
Вы не можете редактировать свои сообщения
Вы не можете удалять свои сообщения
Вы не можете голосовать в опросах
Вы не можете прикреплять файлы к сообщениям
Вы не можете скачивать файлы

!ВНИМАНИЕ!
Сайт не предоставляет электронные версии произведений, а занимается лишь коллекционированием и каталогизацией ссылок, присылаемых и публикуемых на форуме нашими читателями. Если вы являетесь правообладателем какого-либо представленного материала и не желаете, чтобы ссылка на него находилась в нашем каталоге, свяжитесь с нами, и мы незамедлительно удалим ее. Файлы для обмена на трекере предоставлены пользователями сайта, и администрация не несет ответственности за их содержание. Просьба не заливать файлы, защищенные авторскими правами, а также файлы нелегального содержания!