[ Сегодня идет свободное скачивание без начисления Download ]


Статистика раздачи
Нет
 
   
 
Top  
 
 
-Иван Васильевич меняет профессию.- Русское название: Иван Васильевич меняет профессию
Оригинальное название: Иван Васильевич меняет профессию
Год выпуска: 1973
Жанр: Фантастика, Комедия, Приключения
Описание фильма:
Инженер-изобретатель Тимофеев сконструировал машину времени, которая соединила его квартиру с далеким шестнадцатым веком - точнее, с палатами государя Ивана Грозного. Туда-то и попадают тезка царя пенсионер-общественник Иван Васильевич Бунша и квартирный вор Жорж Милославский.
На их место в двадцатом веке «переселяется» великий государь. Поломка машины приводит ко множеству неожиданных и забавных событий...
Режиссер: Леонид Гайдай
Актеры: Александр Демьяненко, Юрий Яковлев, Леонид Куравлёв, Наталья Крачковская, Савелий Крамаров, Наталья Селезнёва, Владимир Этуш, Михаил Пуговкин, Сергей Филиппов, Наталья Кустинская
Продолжительность: 01:31:38
Перевод: Отсутствует

Дата российской премьеры: 21 сентября 1973
Дата выхода Blu-Ray: 9 марта 2011
Видео: MPEG-4 AVC/H.264, 960x720 pixels, 59.94 fps, 13.5 Mbps, High@L4.1
Аудио: Руcский, AC3 5.1, 448 Kbps
Проверено на Blu-Ray плеере Samsung BD-D5100-

Про релиз:

Исходник взят отсюда: .
Видео отрейндерено в 60 (59.94=23.976*5/2) кадров в секунду (fps).
Проверено на Blu-Ray плеере Samsung BD-D5100
Применена мультизагрузка сэмпла.
-

MediaInfo:

General
Unique ID : 224437812984373290825067083555685529861 (0xA8D92685111BC45AB56DB0AC6A6BF905)
Complete name : E:\Video\60 fps\Иван Васильевич\Иван Васильевич меняет профессию (1973) BDRip [720p 60fps].mkv
Format : Matroska
Format version : Version 2
File size : 8.94 GiB
Duration : 1h 31mn
Overall bit rate : 14.0 Mbps
Encoded date : UTC 2012-12-29 16:37:04
Writing application : mkvmerge v3.4.0 ('Rapunzel') сборка от May 18 2010 22:32:11
Writing library : libebml v0.8.0 + libmatroska v0.9.0
Video
ID : 1
Format : AVC
Format/Info : Advanced Video Codec
Format profile : High@L4.1
Format settings, CABAC : Yes
Format settings, ReFrames : 9 frames
Codec ID : V_MPEG4/ISO/AVC
Duration : 1h 31mn
Bit rate : 13.5 Mbps
Width : 960 pixels
Height : 720 pixels
Display aspect ratio : 4:3
Frame rate mode : Variable
Frame rate : 59.940 fps
Color space : YUV
Chroma subsampling : 4:2:0
Bit depth : 8 bits
Scan type : Progressive
Bits/(Pixel*Frame) : 0.326
Stream size : 8.48 GiB (95%)
Title : Ivan.Vasilievich.720p.60fps
Writing library : x264 core 120 r2120kMod 0c7dab9
Encoding settings : cabac=1 / ref=9 / deblock=1:0:0 / analyse=0x3:0x113 / me=umh / subme=10 / psy=1 / fade_compensate=0.00 / psy_rd=1.00:0.00 / mixed_ref=1 / me_range=24 / chroma_me=1 / trellis=2 / 8x8dct=1 / cqm=0 / deadzone=21,11 / fast_pskip=1 / chroma_qp_offset=-2 / threads=4 / sliced_threads=1 / slices=4 / nr=0 / decimate=1 / interlaced=0 / bluray_compat=0 / constrained_intra=0 / bframes=9 / b_pyramid=2 / b_adapt=2 / b_bias=0 / direct=3 / weightb=1 / open_gop=0 / weightp=2 / keyint=300 / keyint_min=30 / scenecut=40 / intra_refresh=0 / rc=abr / mbtree=0 / bitrate=13500 / ratetol=1.0 / qcomp=0.60 / qpmin=10 / qpmax=51 / qpstep=4 / ip_ratio=1.40 / pb_ratio=1.30 / aq=1:1.00
Language : Russian
Default : No
Forced : No
Audio
ID : 2
Format : AC-3
Format/Info : Audio Coding 3
Mode extension : CM (complete main)
Format settings, Endianness : Big
Codec ID : A_AC3
Duration : 1h 31mn
Bit rate mode : Constant
Bit rate : 448 Kbps
Channel(s) : 6 channels
Channel positions : Front: L C R, Side: L R, LFE
Sampling rate : 48.0 KHz
Bit depth : 16 bits
Compression mode : Lossy
Delay relative to video : 700ms
Stream size : 294 MiB (3%)
Language : Russian
Default : Yes
Forced : No
-Скриншоты:


Время раздачи: с 07:00 до 21:00 МСК ежедневно до 10 сидов

[Цитировать]



Показать сообщения:    

Текущее время: 21-Фев 01:31

Часовой пояс: UTC + 3


Вы не можете начинать темы
Вы не можете отвечать на сообщения
Вы не можете редактировать свои сообщения
Вы не можете удалять свои сообщения
Вы не можете голосовать в опросах
Вы не можете прикреплять файлы к сообщениям
Вы не можете скачивать файлы

!ВНИМАНИЕ!
Сайт не предоставляет электронные версии произведений, а занимается лишь коллекционированием и каталогизацией ссылок, присылаемых и публикуемых на форуме нашими читателями. Если вы являетесь правообладателем какого-либо представленного материала и не желаете, чтобы ссылка на него находилась в нашем каталоге, свяжитесь с нами, и мы незамедлительно удалим ее. Файлы для обмена на трекере предоставлены пользователями сайта, и администрация не несет ответственности за их содержание. Просьба не заливать файлы, защищенные авторскими правами, а также файлы нелегального содержания!