[ Сегодня идет свободное скачивание без начисления Download ]


Статистика раздачи
Нет
 
   
 
Top  
 
 
Секреты анимации для начинающих
  • Год выпуска: 2015
  • Страна: Россия
  • Тематика: Создание анимации, работа с программами
  • Тип материала: Обучающее видео
  • Продолжительность: 02:38:43
  • Автор: Олег Накрошаев
  • Язык: Русский

    Посмотрите на любые сайты в Интернете, они просто "кишат" всякими двигающимися картинками. Оказывается их создать не очень то и трудно. Вы получите чёткую систему приёмов, которые позволят Вам создать практически любую анимацию, которую Вы ежедневно видите в Интернете. Создание анимации ограниченно только Вашей фантазией и умением владеть фотошопом.

Что вы получите:

? Понятие об анимации
? Увидите различие палитр анимации в разных версиях фотошопа
? Узнаете назначение всех параметров в палитре анимации
? Увидите два режима работы с анимацией
? Создадите свою первую анимацию
? Научитесь делать анимацию плавной и непрерывной
? Создадите падающий снег
? Научитесь работать с меню палитры анимации
? Создадите поздравительную анимационную открытку
? Научитесь использовать готовую анимацию
? Сможете быстро находить готовую анимацию в Интернете
? Научитесь придавать объекту полупрозрачный вид
? Восстанавливать прозрачность объекта в ходе анимации
? Научитесь работать в палитре анимации в режиме ключевых кадров
Содержание:
Понятие об анимации
? Отличие палитр анимации в разных версиях фотошопа
? Работа в палитре анимации
? Два режима работы с анимацией
? Создание первой анимации
Плавность анимации
? Загрузка кистей
? Настройка кистей
? Создание анимации падающего снега
Создание движения объекта в анимации
? Непрерывность движения
? Работа с меню палитры анимации
Создние поздравительной открытки
? Использование готовой анимации из Интернета
? Как разместить готовую анимацию на статичной картинке и добавить элементы анимации на статичную картинку
Как найти анимированные картинки в Интернете
? Отличие поисковых систем
? Какую поисковую систему использовать
Создание анимации в режиме ключевых кадров (временная шкала для видео)
? Как сделать так, чтобы объект во время движения становился полупрозрачным, а потом опять становился видимым
? Создание анимации движения корабля и самолёта
Бонус:
? Вебинар «Тактика и секреты создания красивой анимации для начинающих»
  • Качество: PCRec
  • Формат: autorun.exe
  • Видео кодек: AVC
  • Аудио кодек: AAC
  • Видео: avc1, 1280x720, 25.000 fps, ~1500 Kbps
  • Аудио: AAC, 44.1 KHz, 2 ch stereo, 96 Kbps

MediaInfo

Код: copyText_writeLink('this.parentNode.parentNode.nextSibling.nextSibling'); [code]
Общее
Формат : MPEG-PS
Размер файла : 480 Мбайт
Общий поток : 5178 Кбит/сек
Видео
Идентификатор : 224 (0xE0)
Формат : MPEG Video
Коммерческое название : HDV 720p
Версия формата : Version 2
Профиль формата : Main@High 1440
Параметр BVOP формата : Да
Параметр матрицы формата : По умолчанию
Параметр GOP формата : M=3, N=15
Битрейт : 4851 Кбит/сек
Максимальный битрейт : 4800 Кбит/сек
Ширина : 1280 пикселей
Высота : 720 пикселей
Соотношение сторон : 16:9
Частота кадров : 23,976 кадра/сек
Стандарт вещания : PAL
Цветовое пространство : YUV
Субдискретизация насыщенности : 4:2:0
Битовая глубина : 8 бит
Тип развёртки : Прогрессивная
Метод сжатия : С потерями
Бит/(Пиксели*Кадры) : 0.220
Временной код первого кадра : 00:00:00:00
Оригинал временного кода : Group of pictures header
Размер потока : 450 Мбайт (94%)
Основные цвета : BT.601 PAL
Характеристики трансфера : BT.470 System B, BT.470 System G
Коэффициенты матрицы : BT.601
Gop_OpenClosed_FirstFrame : Closed
Аудио
Идентификатор : 192 (0xC0)
Формат : MPEG Audio
Версия формата : Version 1
Профиль формата : Layer 2
Вид битрейта : Постоянный
Битрейт : 224 Кбит/сек
Каналы : 2 канала
Частота : 44,1 КГц
Метод сжатия : С потерями
Задержка видео : 42 мс.
Размер потока : 20,8 Мбайт (4%)

[Цитировать]



Показать сообщения:    

Текущее время: 10-Дек 08:01

Часовой пояс: UTC + 3


Вы не можете начинать темы
Вы не можете отвечать на сообщения
Вы не можете редактировать свои сообщения
Вы не можете удалять свои сообщения
Вы не можете голосовать в опросах
Вы не можете прикреплять файлы к сообщениям
Вы не можете скачивать файлы

!ВНИМАНИЕ!
Сайт не предоставляет электронные версии произведений, а занимается лишь коллекционированием и каталогизацией ссылок, присылаемых и публикуемых на форуме нашими читателями. Если вы являетесь правообладателем какого-либо представленного материала и не желаете, чтобы ссылка на него находилась в нашем каталоге, свяжитесь с нами, и мы незамедлительно удалим ее. Файлы для обмена на трекере предоставлены пользователями сайта, и администрация не несет ответственности за их содержание. Просьба не заливать файлы, защищенные авторскими правами, а также файлы нелегального содержания!