[ Сегодня идет свободное скачивание без начисления Download ]


Статистика раздачи
Нет
 
   
 
Top  
 
 
Ограбление по-женски Производитель : Украина, FILM.UA при участии ТО «Империя добра»
Жанр: Комедия, приключенческая
Год выпуска: 2014
Продолжительность: 45 мин.
Cубтитры: нет
Режиссер: Ашот Кещян
В ролях: Ирма Витовская, Римма Зюбина, Ольга Тумайкина, Николай Боклан, Борис Георгиевский, Михаил Жонин, Сергей Калантай, Олег Савкин
Описание:
Грабить банки – совсем не женское дело. Но если жизнь заставит, то наши женщины справятся и с этим.Нина, Тома и Света – закадычные подруги. Судьба их не слишком баловала. Нина одна растит сына и работает уборщицей в банке. Тома – учительница, вечно влюбляющаяся не в тех мужчин. Света – медицинский работник среднего звена, вынужденная делить с бывшим супругом скромную жилплощадь.Все, что накоплено на черный день, подруги хранят в том самом банке, где работает Нина. И однажды Нина случайно узнает, что руководство украло все деньги вкладчиков. А чтобы замести следы – планирует инсценировку ограбления банка. И подруги, и остальные вкладчики потеряют все деньги… Возмущенные жизненной несправедливостью, подруги решают проникнуть в хранилище банка и забрать свои вклады. И это им удалось! Но теперь у них «на хвосте» и полиция, и бандиты, чьи деньги они случайно прихватили с собой…
Доп. информация: Без рекламы
Сэмпл
Качество: SATRip
Формат: AVI
Видео кодек: DivX 5
Аудио кодек: МР3
Видео: 720x400 (1.80:1), 25 fps, DivX 5 ~1748 kbps avg, 0.22 bit/pixel
Аудио: 48 kHz, MPEG Audio Layer 3, 2/0 (L,R) ch, ~128.00 kbps avg

MI

General
Complete name : D:\раздачи\Ograblenie.po.zhenski.01.avi
Format : AVI
Format/Info : Audio Video Interleave
File size : 557 MiB
Duration : 44mn 43s
Overall bit rate : 1 740 Kbps
Writing application : transcode-1.1.5
Video
ID : 0
Format : MPEG-4 Visual
Format settings, BVOP : Yes
Format settings, QPel : No
Format settings, GMC : No warppoints
Format settings, Matrix : Default (H.263)
Codec ID : DX50
Codec ID/Hint : DivX 5
Duration : 44mn 43s
Bit rate : 1 600 Kbps
Width : 720 pixels
Height : 400 pixels
Display aspect ratio : 16:9
Frame rate : 25.000 fps
Color space : YUV
Chroma subsampling : 4:2:0
Bit depth : 8 bits
Scan type : Progressive
Compression mode : Lossy
Bits/(Pixel*Frame) : 0.222
Stream size : 512 MiB (92%)
Writing library : Intel(R) MPEG-4 encoder based on Intel(R) IPP 6.1 build 137.20[6.1.137.763]
Audio
ID : 1
Format : MPEG Audio
Format version : Version 1
Format profile : Layer 3
Mode : Joint stereo
Mode extension : MS Stereo
Codec ID : 55
Codec ID/Hint : MP3
Duration : 44mn 43s
Bit rate mode : Constant
Bit rate : 128 Kbps
Channel(s) : 2 channels
Sampling rate : 48.0 KHz
Compression mode : Lossy
Stream size : 40.9 MiB (7%)
Alignment : Aligned on interleaves
Interleave, duration : 24 ms (0.60 video frame)
Interleave, preload duration : 48 ms
Writing library : LAME3.98.2

Внимание! Раздача ведётся путём добавления новых серий!

Внимание! Раздача ведётся путём добавления новых серий
Внимание! Раздача ведётся путём добавления новых серий; при каждом добавлении создётся новый торрент.
Чтобы начать докачку новой серии, пользователям необходимо сделать следующее:
1) остановить скачивание
2) удалить старый торрент у себя из клиента (старые серии удалять не надо)
3) скачать новый торрент и запустить его у себя в клиенте вместо старого, при этом указать клиенту путь в старую папку куда и должно происходить скачивание новых серий.
Ваш клиент при этом должен произвести хеширование (проверку) старой папки (если не производит сам - помогите ему сделать это), и будет докачивать только те серии которых у вас ещё нет. Старые серии при этом не удаляются, а продолжают раздаваться!
Eсли вы уже удалили старые серии, то предотвратить повторную закачку старых серий можно, отжав галочку в соответствовавших местах при запуске нового торрента.

Скриншоты

[Цитировать]



Показать сообщения:    

Текущее время: 05-Дек 13:34

Часовой пояс: UTC + 3


Вы не можете начинать темы
Вы не можете отвечать на сообщения
Вы не можете редактировать свои сообщения
Вы не можете удалять свои сообщения
Вы не можете голосовать в опросах
Вы не можете прикреплять файлы к сообщениям
Вы не можете скачивать файлы

!ВНИМАНИЕ!
Сайт не предоставляет электронные версии произведений, а занимается лишь коллекционированием и каталогизацией ссылок, присылаемых и публикуемых на форуме нашими читателями. Если вы являетесь правообладателем какого-либо представленного материала и не желаете, чтобы ссылка на него находилась в нашем каталоге, свяжитесь с нами, и мы незамедлительно удалим ее. Файлы для обмена на трекере предоставлены пользователями сайта, и администрация не несет ответственности за их содержание. Просьба не заливать файлы, защищенные авторскими правами, а также файлы нелегального содержания!