[ Сегодня идет свободное скачивание без начисления Download ]


Статистика раздачи
Нет
 
   
 
Top  
 
 
-Планета обезьян: Революция / Dawn of the Planet of the Apes (2014) BDRip [720p] [hand made 60fps]«Молитесь за мир, готовьтесь к войне»- Год выпуска: 2014
Производство: США / Chernin Entertainment, TSG Entertainment
Жанр: Фантастика, боевик, драма
Режиссер: Мэтт Ривз
Продюсер: Питер Чернин, Дилан Кларк, Рик Джаффа
Актеры: Энди Серкис, Джейсон Кларк, Гари Олдман, Кери Рассел, Тоби Кеббелл, Коди Смит-МакФи, Кирк Асеведо, Ник Тёрстон, Терри Нотари, Карин Коновал
Описание фильма:
Численность генетически модифицированных обезьян, возглавляемых Цезарем, продолжает увеличиваться, но обезьянам угрожают люди, которым удалось выжить во время ужасной эпидемии десятилетней давности. Поначалу между соперниками устанавливается хрупкий мир, но он оказывается недолговечным. Обезьяны и люди находятся на грани войны, в ходе которой станет понятно, кто из них в будущем станет безраздельно править планетой.
Перевод: Дублированный (Лицензия)
Субтитры: Вшитые,Не отключаемые
Язык субтитров: Русский (Forsed)

Дата мировой премьеры: 26 июня 2014,США Сан-Франциско, Калифорния
Дата российской премьеры: 17 июля 2014, «Двадцатый Век Фокс СНГ»
Дата выхода DVD релиза: 20 ноября 2014, «Двадцатый Век Фокс СНГ»
Дата выхода Blu-Ray релиза: 20 ноября 2014, «Двадцатый Век Фокс СНГ»
Продолжительность: 02:10:24
Качество видео: BDRip 720p [profile-LQ]
Видеокодек: MPEG-4 AVC/H.264
Битрейт видео: ~ 10,9 Мбит/сек
Размер кадра: 1280 x 704
Аудио: AC3 5.1, 48.0 KHz, 640 Kbps - Русский

MediaInfo:

Общее
Уникальный идентификатор : 230745218994071164804517939073367765857 (0xAD97E9A54C1E4D6B90436A2D1EF17361)
Полное имя : D:\Торренты\Dawn of the Planet of the Apes 60fps.mkv
Формат : Matroska
Версия формата : Version 2
Размер файла : 10,8 Гбайт
Продолжительность : 2 ч. 10 м.
Общий поток : 11,8 Мбит/сек
Название фильма : Dawn of the Planet of the Apes (2014) Blu-ray CEE 1080p AVC DTS 5.1
Дата кодирования : UTC 2014-11-16 07:37:25
Программа кодирования : mkvmerge v6.9.1 ('Blue Panther') 64bit built on Apr 18 2014 18:23:38
Библиотека кодирования : libebml v1.3.0 + libmatroska v1.4.1
Видео
Идентификатор : 1
Формат : AVC
Формат/Информация : Advanced Video Codec
Профиль формата : [email protected]
Параметр CABAC формата : Да
Параметр ReFrames формата : 6 кадров
Идентификатор кодека : V_MPEG4/ISO/AVC
Продолжительность : 2 ч. 10 м.
Битрейт : 10,9 Мбит/сек
Ширина : 1280 пикселей
Высота : 704 пикселя
Соотношение сторон : 16:9
Режим частоты кадров : Постоянный
Частота кадров : 59,880 кадров/сек
Частота кадров в оригинале : 59,940 кадров/сек
Цветовое пространство : YUV
Субдискретизация насыщенности : 4:2:0
Битовая глубина : 8 бит
Тип развёртки : Прогрессивная
Бит/(Пиксели*Кадры) : 0.203
Размер потока : 9,97 Гбайт (93%)
Заголовок : Release by mimok
Библиотека кодирования : x264 core 125 r2208 d9d2288
Настройки программы : cabac=1 / ref=6 / deblock=0:0:0 / analyse=0x3:0x133 / me=umh / subme=8 / psy=1 / psy_rd=1.00:0.15 / mixed_ref=1 / me_range=20 / chroma_me=1 / trellis=2 / 8x8dct=1 / cqm=0 / deadzone=21,11 / fast_pskip=0 / chroma_qp_offset=-3 / threads=6 / lookahead_threads=1 / sliced_threads=0 / nr=0 / decimate=0 / interlaced=0 / bluray_compat=0 / constrained_intra=0 / bframes=8 / b_pyramid=2 / b_adapt=2 / b_bias=0 / direct=1 / weightb=1 / open_gop=0 / weightp=2 / keyint=600 / keyint_min=59 / scenecut=40 / intra_refresh=0 / rc=crf / mbtree=0 / crf=17.0 / qcomp=0.63 / qpmin=10 / qpmax=51 / qpstep=4 / ip_ratio=1.40 / pb_ratio=1.30 / aq=1:1.20
Default : Да
Forced : Нет
Аудио
Идентификатор : 2
Формат : AC-3
Формат/Информация : Audio Coding 3
Расширение режима : CM (complete main)
Параметр Endianness формата : Big
Идентификатор кодека : A_AC3
Продолжительность : 2 ч. 10 м.
Вид битрейта : Постоянный
Битрейт : 640 Кбит/сек
Каналы : 6 каналов
Расположение каналов : Front: L C R, Side: L R, LFE
Частота : 48,0 КГц
Битовая глубина : 16 бит
Метод сжатия : С потерями
Размер потока : 597 Мбайт (5%)
Язык : Russian
Default : Да
Forced : Нет

Скринлист:

Скриншоты:

[Цитировать]



Показать сообщения:    

Текущее время: 05-Дек 15:34

Часовой пояс: UTC + 3


Вы не можете начинать темы
Вы не можете отвечать на сообщения
Вы не можете редактировать свои сообщения
Вы не можете удалять свои сообщения
Вы не можете голосовать в опросах
Вы не можете прикреплять файлы к сообщениям
Вы не можете скачивать файлы

!ВНИМАНИЕ!
Сайт не предоставляет электронные версии произведений, а занимается лишь коллекционированием и каталогизацией ссылок, присылаемых и публикуемых на форуме нашими читателями. Если вы являетесь правообладателем какого-либо представленного материала и не желаете, чтобы ссылка на него находилась в нашем каталоге, свяжитесь с нами, и мы незамедлительно удалим ее. Файлы для обмена на трекере предоставлены пользователями сайта, и администрация не несет ответственности за их содержание. Просьба не заливать файлы, защищенные авторскими правами, а также файлы нелегального содержания!