[ Сегодня идет свободное скачивание без начисления Download ]


Статистика раздачи
Нет
 
   
 
Top  
 
 
За двумя зайцами / Iddarammayilatho
-Страна: Индия
Жанр: Боевик, мелодрама, комедия
Год выпуска: 2013
Продолжительность: 02:20:16--Перевод: Профессиональный (многоголосый закадровый) - Red Media (ТК Индия ТВ)
Cубтитры: Нет--Режиссер: Пури Джаганат / Puri Jagannadh-В ролях: Аллу Арджун, Амала Пол, Катрин Треса, Шавар Али, Брахманандам, Рао Рамеш, Али, Таникелла Бхарани--Описание: Аканша приехала в Испанию изучать психологию, предчувствуя свободу нового европейского мира. В съемной комнате она обнаружила дневник незнакомки, который открыл перед ней историю красивой и трогательной любви Комалы и Санджу. Аканша сопереживала им, листая страницу за страницей, словно рукописный роман. Пока неожиданно не столкнулась лицом к лицу с героем этого романа. Что-то насторожило и привлекло ее в этом парне. Быть может, затаенная печаль в глубине сердца? А где же тогда Комала, любовь которой пылала огнем со страниц дневника?--Доп. информация: Фильм снят на языке телугу.-- --Качество видео: НDRip (исх. BDRip 1080p [DDR])
Формат видео: AVI-Видео: 720x304 (2.37:1), 24.000 fps, XviD build 50 ~1348 kbps avg, 0.26 bit/pixel
Аудио: 48 kHz, МР3, 2 ch, 128 kbps
-
Рип, синхрон. звука: soso4eg--Сэмпл / Sample-

Скриншот с названием:


-

Скриншоты:


-

MI

Общее
Полное имя : I:\[Релизы]\[DVDRip]\Za.Dvumya.Zaytsami.2013.HDRip.XviD-soso4eg.avi
Формат : AVI
Формат/Информация : Audio Video Interleave
Размер файла : 1,46 Гбайт
Продолжительность : 2 ч. 20 м.
Общий поток : 1486 Кбит/сек
Название фильма : Iddarammayilatho.2013.HDRip.XviD-soso4eg
Режиссёр : soso4eg
Программа кодирования : VirtualDubMod 1.5.10.3 | www.virtualdub-fr.org || (build 2550/release)
Формат оригинала/Имя : Telugu
Правообладатель : специально для BitTorrent трекер RuTracker.org (ex torrents.ru)
Примечание : пер. Red Media
Видео
Идентификатор : 0
Формат : MPEG-4 Visual
Профиль формата : Advanced Simple@L5
Параметр BVOP формата : 2
Параметр QPel формата : Нет
Параметр GMC формата : Без точки перехода
Параметр матрицы формата : Default (MPEG)
Идентификатор кодека : XVID
Идентификатор кодека/Подсказка : XviD
Продолжительность : 2 ч. 20 м.
Битрейт : 1349 Кбит/сек
Ширина : 720 пикселей
Высота : 304 пикселя
Соотношение сторон : 2,35:1
Частота кадров : 24,000 кадра/сек
Цветовое пространство : YUV
Субдискретизация насыщенности : 4:2:0
Битовая глубина : 8 бит
Тип развёртки : Прогрессивная
Метод сжатия : С потерями
Бит/(Пиксели*Кадры) : 0.257
Размер потока : 1,32 Гбайт (91%)
Библиотека кодирования : XviD 1.2.1 (UTC 2008-12-04)
Аудио
Идентификатор : 1
Формат : MPEG Audio
Версия формата : Version 1
Профиль формата : Layer 3
Режим : Joint stereo
Расширение режима : MS Stereo
Идентификатор кодека : 55
Идентификатор кодека/Подсказка : MP3
Продолжительность : 2 ч. 20 м.
Вид битрейта : Постоянный
Битрейт : 128 Кбит/сек
Каналы : 2 канала
Частота : 48,0 КГц
Метод сжатия : С потерями
Размер потока : 128 Мбайт (9%)
Выравнивание : Соединение по промежуткам
Продолжительность промежутка : 42 мс. (1,00 видеокадр)
Время предзагрузки промежутка : 504 мс.

-
-

[Цитировать]



Показать сообщения:    

Текущее время: 25-Апр 12:45

Часовой пояс: UTC + 6


Вы не можете начинать темы
Вы не можете отвечать на сообщения
Вы не можете редактировать свои сообщения
Вы не можете удалять свои сообщения
Вы не можете голосовать в опросах
Вы не можете прикреплять файлы к сообщениям
Вы не можете скачивать файлы

!ВНИМАНИЕ!
Сайт не предоставляет электронные версии произведений, а занимается лишь коллекционированием и каталогизацией ссылок, присылаемых и публикуемых на форуме нашими читателями. Если вы являетесь правообладателем какого-либо представленного материала и не желаете, чтобы ссылка на него находилась в нашем каталоге, свяжитесь с нами, и мы незамедлительно удалим ее. Файлы для обмена на трекере предоставлены пользователями сайта, и администрация не несет ответственности за их содержание. Просьба не заливать файлы, защищенные авторскими правами, а также файлы нелегального содержания!