[ Сегодня идет свободное скачивание без начисления Download ]


Статистика раздачи
Нет
 
   
 
Top  
 
 
Битва с демоном / Ravan Raaj: A True Story
Страна: Индия
Жанр: Боевик
Год выпуска: 1995
Продолжительность: 02:26:40
Перевод: Одноголосый закадровый
Cубтитры: нет
Режиссер: Татинени Рама Рао / Rama Rao Tatineni
В ролях: Ишрат Али, Митхун Чакраборти, Джек Гауд, Хэриш, Шакти Капур, Джонни Левер, Мадху, Алок Нат, Адитья Панчоли, Хариш Патель, Пареш Раваль, Ганшьям Рохера, Теджа Сапру, Шиба
Описание: Чтобы уничтожить преступную группу, похищающую людей для продажи их органов за огромные деньги, офицеру полиции Арджуну предоставляются чрезвычайные полномочия.
Риппер, русская звуковая дорожка - Shizik (Спасибо!)
Сведение звука - Алёна (Спасибо!)
Сэмпл: http://multi-up.com/971358
Качество видео: DVDRip
Формат видео: AVI
Видео: XviD build 46, 672x352 (1.91:1), 29.970 fps, 1809 kbps avg
Аудио: AC3 Dolby Digital, 48 kHz, 2/0 (L,R) ch, 192.00 kbps avg

MediaInfo

General
Complete name : D:\Bitva.s.demonom.1995.DVDRip.avi
Format : AVI
Format/Info : Audio Video Interleave
Format profile : OpenDML
File size : 2.06 GiB
Duration : 2h 26mn
Overall bit rate : 2 010 Kbps
Writing application : VirtualDubMod 1.5.10.2 (build 2540/release)
Writing library : VirtualDubMod build 2540/release
Video
ID : 0
Format : MPEG-4 Visual
Format profile : AdvancedSimple@L5
Format settings, BVOP : Yes
Format settings, QPel : No
Format settings, GMC : No warppoints
Format settings, Matrix : Custom
Codec ID : XVID
Codec ID/Hint : XviD
Duration : 2h 26mn
Bit rate : 1 802 Kbps
Width : 672 pixels
Height : 352 pixels
Display aspect ratio : 1.909
Frame rate : 29.970 fps
Resolution : 24 bits
Colorimetry : 4:2:0
Scan type : Progressive
Bits/(Pixel*Frame) : 0.254
Stream size : 1.85 GiB (90%)
Writing library : XviD 1.1.2 (UTC 2006-11-01)
Audio
ID : 1
Format : AC-3
Format/Info : Audio Coding 3
Codec ID : 2000
Duration : 2h 26mn
Bit rate mode : Constant
Bit rate : 192 Kbps
Channel(s) : 2 channels
Channel positions : L R
Sampling rate : 48.0 KHz
Stream size : 201 MiB (10%)
Alignment : Split accross interleaves
Interleave, duration : 33 ms (1.00 video frame)
Interleave, preload duration : 500 ms
Language : Hindi

Скриншоты

[Цитировать]



Показать сообщения:    

Текущее время: 07-Дек 11:38

Часовой пояс: UTC + 3


Вы не можете начинать темы
Вы не можете отвечать на сообщения
Вы не можете редактировать свои сообщения
Вы не можете удалять свои сообщения
Вы не можете голосовать в опросах
Вы не можете прикреплять файлы к сообщениям
Вы не можете скачивать файлы

!ВНИМАНИЕ!
Сайт не предоставляет электронные версии произведений, а занимается лишь коллекционированием и каталогизацией ссылок, присылаемых и публикуемых на форуме нашими читателями. Если вы являетесь правообладателем какого-либо представленного материала и не желаете, чтобы ссылка на него находилась в нашем каталоге, свяжитесь с нами, и мы незамедлительно удалим ее. Файлы для обмена на трекере предоставлены пользователями сайта, и администрация не несет ответственности за их содержание. Просьба не заливать файлы, защищенные авторскими правами, а также файлы нелегального содержания!