[ Today is free to download without increasing Download ]

DL-List and Torrent activity
Битва с демоном / Ravan Raaj: A True Story
Страна: Индия
Жанр: Боевик
Год выпуска: 1995
Продолжительность: 02:26:40
Перевод: Одноголосый закадровый
Cубтитры: нет
Режиссер: Татинени Рама Рао / Rama Rao Tatineni
В ролях: Ишрат Али, Митхун Чакраборти, Джек Гауд, Хэриш, Шакти Капур, Джонни Левер, Мадху, Алок Нат, Адитья Панчоли, Хариш Патель, Пареш Раваль, Ганшьям Рохера, Теджа Сапру, Шиба
Описание: Чтобы уничтожить преступную группу, похищающую людей для продажи их органов за огромные деньги, офицеру полиции Арджуну предоставляются чрезвычайные полномочия.
Риппер, русская звуковая дорожка - Shizik (Спасибо!)
Сведение звука - Алёна (Спасибо!)
Сэмпл: http://multi-up.com/971358
Качество видео: DVDRip
Формат видео: AVI
Видео: XviD build 46, 672x352 (1.91:1), 29.970 fps, 1809 kbps avg
Аудио: AC3 Dolby Digital, 48 kHz, 2/0 (L,R) ch, 192.00 kbps avg


Complete name : D:\Bitva.s.demonom.1995.DVDRip.avi
Format : AVI
Format/Info : Audio Video Interleave
Format profile : OpenDML
File size : 2.06 GiB
Duration : 2h 26mn
Overall bit rate : 2 010 Kbps
Writing application : VirtualDubMod (build 2540/release)
Writing library : VirtualDubMod build 2540/release
ID : 0
Format : MPEG-4 Visual
Format profile : AdvancedSimple@L5
Format settings, BVOP : Yes
Format settings, QPel : No
Format settings, GMC : No warppoints
Format settings, Matrix : Custom
Codec ID : XVID
Codec ID/Hint : XviD
Duration : 2h 26mn
Bit rate : 1 802 Kbps
Width : 672 pixels
Height : 352 pixels
Display aspect ratio : 1.909
Frame rate : 29.970 fps
Resolution : 24 bits
Colorimetry : 4:2:0
Scan type : Progressive
Bits/(Pixel*Frame) : 0.254
Stream size : 1.85 GiB (90%)
Writing library : XviD 1.1.2 (UTC 2006-11-01)
ID : 1
Format : AC-3
Format/Info : Audio Coding 3
Codec ID : 2000
Duration : 2h 26mn
Bit rate mode : Constant
Bit rate : 192 Kbps
Channel(s) : 2 channels
Channel positions : L R
Sampling rate : 48.0 KHz
Stream size : 201 MiB (10%)
Alignment : Split accross interleaves
Interleave, duration : 33 ms (1.00 video frame)
Interleave, preload duration : 500 ms
Language : Hindi



Display posts:    

Current time is: 26-Oct 03:32

All times are UTC + 3

You cannot post new topics in this forum
You cannot reply to topics in this forum
You cannot edit your posts in this forum
You cannot delete your posts in this forum
You cannot vote in polls in this forum
You cannot attach files in this forum
You cannot download files in this forum

The site does not give electronic versions of products, and is engaged only in a collecting and cataloguing of the references sent and published at a forum by our readers. If you are the legal owner of any submitted material and do not wish that the reference to it was in our catalogue, contact us and we shall immediately remove her. Files for an exchange on tracker are given by users of a site, and the administration does not bear the responsibility for their maintenance. The request to not fill in the files protected by copyrights, and also files of the illegal maintenance!