[ Сегодня идет свободное скачивание без начисления Download ]


Статистика раздачи
Буду качать: [ 5 ]
Качаю: [ 1 ]
Скачал: [ 7 ]
 
   
 
Top  
 
 
-Кухар Богдан | Установка и настройка 1С 8.3 (2014) PCRec- Автор (режиссер): Кухар Богдан
Жанр:
Продолжительность: 08:00:00
Качество видео: PCRec
Видеокодек: AVC
Битрейт видео: ~204 kbps
Размер кадра: 1280x720
Аудиокодек: AAC 2.0
Битрейт аудио: 254 kbps (CBR), 2 Ch, 44100 Hz
Описание:
Больше никаких скитаний на форумах, пожалейте свое время, ведь его не вернуть, курс «Установка и настройка 1С 8.3» это видеокурс, который способен закрыть большинство технических вопросов, которые у Вас есть или могут возникнуть в будущем. 8 часов видео, без воды, без пустой болтовни только то, что можно и нужно применять на практике.
Вы научитесь:
1. Настраивать и устанавливать 1С 8.3 как на Windows так и на Linux.
2. Настраивать и устанавливать Windows server 2012 R2.
3.Настраивать и устанавливать SQL server 2012.
4.Настраивать и устанавливать Сервер терминалов.
5.Настраивать и устанавливать Ubuntu server 14.04.
6.Настраивать и устанавливать PostgreSQL 9.2.
7.Настраивать и устанавливать XRDP сервер терминалов на Linux.

Дополнительная информация:

Содержание видеокурса «Установка и настройка 1С 8.3».
Теория:
1. Платформа и конфигурация 1С 8.3
2. Файловый вариант работы 1С 8.3
3. Клиент – серверный вариант работы 1C 8.3
4. Клиентские приложения в 1С 8.3
5. Управляемые формы 8.3
6. Как выбрать правильную схему работы в 1С 8.3.
7. Выбор оптимального оборудования под 1С.
8. Системные требования 1C 8.3.
9. Лицензирование.
Практика Windows:
1. Установка платформы 1С 8.3
2. Основы администрирования ИБ.
3. Локальная сеть.
4. Реализация схемы №1: 2 – 5 Пользователей 1С (Файловый вариант).Организация простейшей схемы совместной работы пользователей с одной информационной базой используя расшаренную папку.
5. Реализация схемы №2: 2 – 5 Пользователей 1С (Файловый вариант).Организация совместной работы пользователей с одной информационной базой используя web server Apache.
6. Реализация схемы №3 : 5 – 15 Пользователей 1С (Файловый вариант).Организация совместной работы пользователей с одной информационной базой используя Windows Server 2012 + Сервер терминалов- Установка Windows Server 2012 R2 Standart.- Установка настройка и лицензирование службы терминалов.- Решаем проблемы с доступом в ЛС.
7. Переход на клиент-серверный вариант работы.- Установка SQL Server 2012- Установка обновлений SP2- Установка сервера 1С 8.3- Перевод файловой ИБ на клиент-сервер за 5 минут.
8. Реализация схемы №4 на 15 – 30 Пользователей 1С (Клиент-сервер).Клиент-серверный вариант работы 1С 8.3 с использованием сервера терминалов.- Основы администрирования пользователей на сервере.- Групповые политики (настройка прав и возможностей пользователей).
9. 1С и WEB в клиент-серверном варианте работы.-Установка веб сервера Apache на Windows server 2012.-Тонкий клиент и веб сервер Apache.
10. Реализация схемы №5: на 30 – 100 Пользователей 1С (Клиент-сервер).-Переносим сервер SQL на другой физический сервер.-Создание информационной базы при помощи сервера 1С.
11. Основы администрирования ИБ на SQL 2012.- Удаление SQL базы.- Создание SQL базы- Backup ИБ средствами сервера SQL 2012.- Восстановление ИБ средствами сервера SQL 2012.
Практика Linux:
1. Установка 1С 8.3-Скачивание необходимых дистрибутивов – ИТС.-Подготовка локальной сети.-Установка 1С 8.3 на UBUNTU 12.04 LTS- Демонстрация работы 1С 8.3 управляемое приложение на линукс.
2. Реализация схемы №2: на 2 – 5 Пользователей в 1С (Файловый вариант).-Подготовка локальной сети. на UBUNTU 12.04 LTS.-Установка и настройка сервиса SAMBA для работы с 1С 8.3-Устраняем проблемы с общим доступом к одной ИБ.-Реализация схемы linux + windows. (расшаренная папка)
3. Публикация ИБ на веб сервере Apache.- Установка веб сервера Apache на UBUNTU 12.04 LTS- Публикация информационной базы на UBUNTU.- Решаем проблемы с доступом через ВЕБ.
4. Реализация схемы №3: на 5 – 15 Пользователей 1С (Файловый вариант).-Установка Ubuntu server 14.04-Установка XRDP сервера терминалов.-Создание и настройка пользователей.-Решаем проблемы с переключением клавиатуры в терминальных сессиях.
-Установка 1С 8.3 на Ubuntu server 14.04.
-Решаем проблемы общего доступа к файлам 1С.
5. Реализация схемы №4: на 5 – 30 Пользователей 1С (Клиент-сервер).-Подготовка ПК на UBUNTU 12.04 LTS к установке PostgreSQL.Устранение проблем установки PostgreSQL.Установка и настройка сервера СУБД PostgreSQL.9.2- Создание информационной базы в 1С средствами PostgreSQL.
– Администрирование ИБ PostgreSQL. с помощью Windows утилиты.
6. Реализация схемы №5: на 15 – 30 Пользователей 1С (Клиент-сервер).- Установка и настройка сервера СУБД PostgreSQL.9.2 на Ubuntu server 14.04.- Клиент серверный вариант работы с использование связки XRDP + PostgreSQL.-Администрирование информационных баз при помощи утилиты «MMC» консоль управления.
Кластер серверов в 1С 8.3:
1. Общие сведения о кластере серверов.
2. СУБД для кластера серверов.
3. Дополнительный кластер серверов.
4. Информационные базы в кластере серверов.
5. Дополнительный рабочий сервер в кластере.
6. Администратор кластера.
7. Менеджер кластера.
8. Рабочие процессы в кластере серверов.
9. Сеансы кластера серверов.
10. Требование назначения функциональности в кластере.
11. Проблемы кластера серверов 8.3.

MediaInfo:

Общее
Формат : MPEG-4
Профиль формата : Base Media / Version 2
Идентификатор кодека : mp42
Размер файла : 52,3 Мбайт
Режим общего битрейта : Переменный
Общий поток : 460 Кбит/сек
Видео
Идентификатор : 1
Формат : AVC
Формат/Информация : Advanced Video Codec
Профиль формата : Main@L3.1
Параметр CABAC формата : Да
Параметр ReFrames формата : 3 кадра
Идентификатор кодека : avc1
Идентификатор кодека/Информация : Advanced Video Coding
Битрейт : 204 Кбит/сек
Ширина : 1280 пикселей
Высота : 720 пикселей
Соотношение сторон : 16:9
Режим частоты кадров : Постоянный
Частота кадров : 30,000 кадров/сек
Стандарт вещания : NTSC
Цветовое пространство : YUV
Субдискретизация насыщенности : 4:2:0
Битовая глубина : 8 бит
Тип развёртки : Прогрессивная
Бит/(Пиксели*Кадры) : 0.007
Размер потока : 23,2 Мбайт (44%)
Аудио
Идентификатор : 2
Формат : AAC
Формат/Информация : Advanced Audio Codec
Профиль формата : LC
Идентификатор кодека : 40
Вид битрейта : Переменный
Битрейт : 254 Кбит/сек
Максимальный битрейт : 421 Кбит/сек
Каналы : 2 канала
Расположение каналов : Front: L R
Частота : 44,1 КГц
Метод сжатия : С потерями
Размер потока : 28,8 Мбайт (55%)
Скриншоты:

[Цитировать]

и как скачать?

[Цитировать]



Показать сообщения:    

Текущее время: 11-Дек 01:24

Часовой пояс: UTC + 3


Вы не можете начинать темы
Вы не можете отвечать на сообщения
Вы не можете редактировать свои сообщения
Вы не можете удалять свои сообщения
Вы не можете голосовать в опросах
Вы не можете прикреплять файлы к сообщениям
Вы не можете скачивать файлы

!ВНИМАНИЕ!
Сайт не предоставляет электронные версии произведений, а занимается лишь коллекционированием и каталогизацией ссылок, присылаемых и публикуемых на форуме нашими читателями. Если вы являетесь правообладателем какого-либо представленного материала и не желаете, чтобы ссылка на него находилась в нашем каталоге, свяжитесь с нами, и мы незамедлительно удалим ее. Файлы для обмена на трекере предоставлены пользователями сайта, и администрация не несет ответственности за их содержание. Просьба не заливать файлы, защищенные авторскими правами, а также файлы нелегального содержания!