[ Сегодня идет свободное скачивание без начисления Download ]


Статистика раздачи
Нет
 
   
 
Top  
 
 
-Степан Грицков | Мастер Слова. 18 техник эффективного общения (2014) CamRip- Автор (режиссер): Степан Грицков
Жанр: Психология, Общение
Продолжительность: 04:55:04
Качество видео: CamRip
Видеокодек: AVC
Битрейт видео: ~4998 kbps
Размер кадра: 1280x720
Аудиокодек: AAC 2.0
Битрейт аудио: 192 kbps (CBR), 2 Ch, 48000 Hz
Описание:
Почему я делюсь этой информацией ? Потому что точно знаю, что ни один навык и ни одна наука не нужна так, как навык и умение правильно общаться. Потому что я в этом действительно неплохо разбираюсь. Потому что я вижу и наблюдаю за тем, как преображается и меняется жизнь людей, владеющих навыками эффективного общения. Потому что этими знаниями должен обладать каждый человек, но им нигде не обучают.

Дополнительная информация:

Что Вы получите:
1 урок: Определение своих целей и целей собеседника
Как определить цели собеседника?
Выстраивание структуры своих целей в общении
Зоны соглашения и определение своей зоны
Домашнее задание
2 урок: Зрительный контакт
Как нужно устанавливать зрительный контакт
Как научиться «читать» человека по глазам
Как определить когда человек врет
Научитесь контролировать свой взгляд
Домашнее задание и доп.материал
3 урок: Слушайте собеседника
Структура восприятия информации собеседником
Закон Паретто в слушанье
Варианты слушанья: от подавления к уважению
5 методов активного слушанья
Домашнее задание
4 урок: Искренность, интерес и имя
Как и когда использовать имя собеседника
Как «пробудить» человека
Запрещенные приемы
Крепление «якорей»
История имени, как взятка
Домашнее задание
5 урок: Сотрудничество или конфликт?
Самая эффективная форма общения
Точки зрения
Совпадение, дополнение, согласование
Фразы-убийцы
6 урок: Комплиментология
Что такое комплимент
Техника комплиментов «минус-плюс»
Комплимент «ассоциация»
Больше правды, меньше лести
Как уважение влияет на внутреннюю силу
Кому важнее всего говорить комплименты
Домашнее задание и доп.материал
7 урок: Гибкость
Категоричность или что нас ломает
Путь наименьшего сопротивления
Как сохранить энергию и силы после общения
Правило «Воды»
Домашнее задание
8 урок: Коммуникативная модель
Формируем модель успешного собеседника
Оденьте уверенность и станьте ею
Агрессивная структура
Уверенная структура
Неуверенная структура
9 урок: Чувства
Сдержанность и спокойствие
Как сбить с ног и манипулировать
Эмоции не лучший советник
Зона эмоциональной стабильности
Домашнее задание
10 урок: Техники вопросов
Разновидности вопросов
Техника «Тризуб»
Техника «ВБВ»
Техника «Ловушка»
11 урок: Смех! Смех! Смех!
Улыбка и чувство юмора
Как «закрепить» улыбку
О чем Вы говорите? Ваши истории?
Человек – анекдот
Улыбка должна стать Вашим якорем
Внедрите позитив
Домашнее задание
12 урок: Манипуляции
Уход от манипуляций
Оценка
Как ругать и как хвалить
Я Билл Гейтс или «Кто был вчера?»
3 типа людей вокруг
Расти, как на дрожжах
Домашнее задание
13 урок: Критика
Закон «трёх К»
Остановка равна застою
Эффективная обратная связь
Как правильно критиковать, если это необходимо?
14 урок: Закон «трёх П»
Прими. Принимайте людей такими, как они есть
Пойми. Учитесь понимать истинные мотивы
Поддержи. В любой ситуации давайте поддержку
Закон «трёх П» в практике
Эффект и результаты закона
15 урок: Жесты
Какой должна быть жестикуляция.
Постановка жестов
Мимика
Как донести информацию жестами
Как определить психотип человека по жестикуляции
Жесты на разных уровнях чакр
-Домашнее задание
16 урок: Треугольник неврастеника
Избавитель
Преследователь
Жертва
Как избежать попадания в треугольник
Как перестать решать проблемы всех окружающих
Как направить человека на самостоятельное решение
17 урок: Спор, укол и конкуренция
Как избежать спора
Не язвите и не хамите
Конкуренция в общении
Структура решения задачи
18 урок: Эффект Штирлица
Начало разговора
Конец разговора
Середина разговора
Как запомниться собеседнику
Как оставить приятное впечатление от общения

MediaInfo:

Общее
Формат : MPEG-4
Профиль формата : Base Media / Version 2
Идентификатор кодека : mp42
Размер файла : 403 Мбайт
Режим общего битрейта : Переменный
Общий поток : 5195 Кбит/сек
Видео
Идентификатор : 2
Формат : AVC
Формат/Информация : Advanced Video Codec
Профиль формата : [email protected]
Параметр CABAC формата : Да
Параметр ReFrames формата : 3 кадра
Параметр GOP формата : M=4, N=15
Идентификатор кодека : avc1
Идентификатор кодека/Информация : Advanced Video Coding
Вид битрейта : Переменный
Битрейт : 4998 Кбит/сек
Максимальный битрейт : 6000 Кбит/сек
Ширина : 1280 пикселей
Высота : 720 пикселей
Соотношение сторон : 16:9
Режим частоты кадров : Постоянный
Частота кадров : 29,970 кадров/сек
Стандарт вещания : NTSC
Цветовое пространство : YUV
Субдискретизация насыщенности : 4:2:0
Битовая глубина : 8 бит
Тип развёртки : Прогрессивная
Бит/(Пиксели*Кадры) : 0.181
Размер потока : 387 Мбайт (96%)
Размер потока оригинала : 387 Мбайт (96%)
Аудио
Идентификатор : 1
Формат : AAC
Формат/Информация : Advanced Audio Codec
Профиль формата : LC
Идентификатор кодека : 40
Вид битрейта : Постоянный
Битрейт : 192 Кбит/сек
Каналы : channel0
Channel(s)_Original : 2 канала
Расположение каналов : Front: L R
Частота : 48,0 КГц
Метод сжатия : С потерями
Размер потока : 14,9 Мбайт (4%)
Скриншоты:

[Цитировать]



Показать сообщения:    

Текущее время: 05-Дек 11:32

Часовой пояс: UTC + 3


Вы не можете начинать темы
Вы не можете отвечать на сообщения
Вы не можете редактировать свои сообщения
Вы не можете удалять свои сообщения
Вы не можете голосовать в опросах
Вы не можете прикреплять файлы к сообщениям
Вы не можете скачивать файлы

!ВНИМАНИЕ!
Сайт не предоставляет электронные версии произведений, а занимается лишь коллекционированием и каталогизацией ссылок, присылаемых и публикуемых на форуме нашими читателями. Если вы являетесь правообладателем какого-либо представленного материала и не желаете, чтобы ссылка на него находилась в нашем каталоге, свяжитесь с нами, и мы незамедлительно удалим ее. Файлы для обмена на трекере предоставлены пользователями сайта, и администрация не несет ответственности за их содержание. Просьба не заливать файлы, защищенные авторскими правами, а также файлы нелегального содержания!