[ Сегодня идет свободное скачивание без начисления Download ]


Статистика раздачи
Нет
 
   
 
Top  
 
 
-Рассвет мертвецов / Dawn of the Dead «Когда в аду не хватит места - мертвецы выйдут на землю...»- Год выпуска: 2004
Производство: США, Канада, Япония, Франция / New Amsterdam Entertainment Inc., Toho-Towa, Strike Entertainment
Жанр: Ужасы, фантастика, боевик, триллер
Режиссер: Зак Снайдер
Продюсер: Марк Абрахам, Эрик Ньюман, Ричард П. Рубинштейн
Актеры: Сара Полли, Винг Реймз, Джейк Уэбер, Мехи Файфер, Тай Бурелл, Майкл Келли, Кевин Зегерс, Майкл Бэрри, Линди Бут, Джейн Иствуд
Описание фильма:
В то время, как Америка содрогается от внезапного нашествия миллионов мертвецов, маленькая группа уцелевших людей пытаются найти убежище и защиту в огромном здании торгового центра. Но долго ли они смогут противостоять нападению зомби?
Перевод: Дублированный (Лицензия)
Субтитры: Отсутствуют

Дата мировой премьеры: 10 марта 2004
Дата российской премьеры: 15 апреля 2004, «UIP»
Дата выхода DVD релиза: 28 сентября 2004, «Premier Digital»
Дата выхода Blu-Ray релиза: 5 октября 2010, «Юниверсал Пикчерс Рус»
Продолжительность: 01:49:12
Качество видео: BDRip 720p [profile-LQ]
Видеокодек: MPEG-4 AVC/H.264
Битрейт видео: ~ 12,5 Мбит/сек
Размер кадра: 1280 x 552
Аудио: AC3 5.1, 48.0 KHz, 640 Кбит/сек - Русский

MediaInfo:

Общее
Уникальный идентификатор : 182580186851591073343145103057085083397 (0x895BAA379A495A7AA3EA71E056FD2F05)
Полное имя : D:\Торренты\Dawn of the Dead 60fps.mkv
Формат : Matroska
Версия формата : Version 2
Размер файла : 10,3 Гбайт
Продолжительность : 1 ч. 49 м.
Общий поток : 13,4 Мбит/сек
Название фильма : Dawn of the Dead (2004) BDRemux 1080p (Unrated Director's Cut)
Дата кодирования : UTC 2014-12-15 18:37:43
Программа кодирования : mkvmerge v6.9.1 ('Blue Panther') 64bit built on Apr 18 2014 18:23:38
Библиотека кодирования : libebml v1.3.0 + libmatroska v1.4.1
Видео
Идентификатор : 1
Формат : AVC
Формат/Информация : Advanced Video Codec
Профиль формата : [email protected]
Параметр CABAC формата : Да
Параметр ReFrames формата : 6 кадров
Идентификатор кодека : V_MPEG4/ISO/AVC
Продолжительность : 1 ч. 49 м.
Битрейт : 12,5 Мбит/сек
Ширина : 1280 пикселей
Высота : 552 пикселя
Соотношение сторон : 2,35:1
Режим частоты кадров : Постоянный
Частота кадров : 59,880 кадров/сек
Частота кадров в оригинале : 59,940 кадров/сек
Цветовое пространство : YUV
Субдискретизация насыщенности : 4:2:0
Битовая глубина : 8 бит
Тип развёртки : Прогрессивная
Бит/(Пиксели*Кадры) : 0.296
Размер потока : 9,56 Гбайт (93%)
Заголовок : Release by mimok
Библиотека кодирования : x264 core 125 r2208 d9d2288
Настройки программы : cabac=1 / ref=6 / deblock=0:0:0 / analyse=0x3:0x133 / me=umh / subme=8 / psy=1 / psy_rd=1.00:0.15 / mixed_ref=1 / me_range=20 / chroma_me=1 / trellis=2 / 8x8dct=1 / cqm=0 / deadzone=21,11 / fast_pskip=0 / chroma_qp_offset=-3 / threads=6 / lookahead_threads=1 / sliced_threads=0 / nr=0 / decimate=0 / interlaced=0 / bluray_compat=0 / constrained_intra=0 / bframes=8 / b_pyramid=2 / b_adapt=2 / b_bias=0 / direct=1 / weightb=1 / open_gop=0 / weightp=2 / keyint=600 / keyint_min=59 / scenecut=40 / intra_refresh=0 / rc=crf / mbtree=0 / crf=17.0 / qcomp=0.63 / qpmin=10 / qpmax=51 / qpstep=4 / ip_ratio=1.40 / pb_ratio=1.30 / aq=1:1.20
Default : Да
Forced : Нет
Аудио
Идентификатор : 2
Формат : AC-3
Формат/Информация : Audio Coding 3
Расширение режима : CM (complete main)
Параметр Endianness формата : Big
Идентификатор кодека : A_AC3
Продолжительность : 1 ч. 49 м.
Вид битрейта : Постоянный
Битрейт : 640 Кбит/сек
Каналы : 6 каналов
Расположение каналов : Front: L C R, Side: L R, LFE
Частота : 48,0 КГц
Битовая глубина : 16 бит
Метод сжатия : С потерями
Размер потока : 500 Мбайт (5%)
Заголовок : Dub Blu-ray CEE
Язык : Russian
Default : Да
Forced : Нет

Скринлист:

Скриншоты:

[Цитировать]



Показать сообщения:    

Текущее время: 06-Дек 03:56

Часовой пояс: UTC + 3


Вы не можете начинать темы
Вы не можете отвечать на сообщения
Вы не можете редактировать свои сообщения
Вы не можете удалять свои сообщения
Вы не можете голосовать в опросах
Вы не можете прикреплять файлы к сообщениям
Вы не можете скачивать файлы

!ВНИМАНИЕ!
Сайт не предоставляет электронные версии произведений, а занимается лишь коллекционированием и каталогизацией ссылок, присылаемых и публикуемых на форуме нашими читателями. Если вы являетесь правообладателем какого-либо представленного материала и не желаете, чтобы ссылка на него находилась в нашем каталоге, свяжитесь с нами, и мы незамедлительно удалим ее. Файлы для обмена на трекере предоставлены пользователями сайта, и администрация не несет ответственности за их содержание. Просьба не заливать файлы, защищенные авторскими правами, а также файлы нелегального содержания!