[ Сегодня идет свободное скачивание без начисления Download ]


Статистика раздачи
Нет
 
   
 
Top  
 
 
-Воины света / Daybreakers (2009) BDRip [720p] [hand made 60fps]«В 2019 году самым ценным природным ресурсом будут... люди»- Год выпуска: 2009
Производство: Австралия, США / Millennium Films, Lionsgate
Жанр: Ужасы, фантастика, фэнтези, боевик, триллер
Режиссер: Майкл Спириг, Питер Спириг
Продюсер: Крис Браун, Брайан Ферст, Шон Ферст
Актеры: Харриет Минто-Дэй, Джей Лагаая, Дэмиен Гарви, Сахаж Дамплтон, Аллан Тодд, Габриэлла Ди Лабио, Бен Симер, Питер Велман, Итан Хоук, Каллум МакЛин
Описание фильма:
2019 год. Глобальная эпидемия превратила большинство людей в вампиров, поставив человечество на грань вымирания. Безмятежное будущее не светит, впрочем, и кровососам: в условиях дефицита крови они вынуждены холить и лелеять каждую оставшуюся в живых человеческую особь — либо синтезировать заменитель крови. Противостоять концу света пытается группа ученых, ищущая средства для борьбы с вампирами.
Перевод: Дублированный (Лицензия)
Субтитры: Отсутствуют

Дата мировой премьеры: 11 сентября 2009, Канада Международный кинофестиваль в Торонто
Дата российской премьеры: 7 января 2010, «Каскад»
Дата выхода DVD релиза: 11 февраля 2010, «Союз-Видео»
Дата выхода Blu-Ray релиза: 18 февраля 2010, «Союз-Видео»
Продолжительность: 01:37:48
Качество видео: BDRip 720p [profile-LQ]
Видеокодек: MPEG-4 AVC/H.264
Битрейт видео: ~ 7736 Кбит/сек
Размер кадра: 1280 x 552
Аудио: AC3 5.1, 48.0 KHz, 640 Кбит/сек - Русский

MediaInfo:

Общее
Уникальный идентификатор : 188404008838553311123951009310427955821 (0x8DBD4ACF5AB8916AB6BCED2AF891C26D)
Полное имя : D:\Торренты\Daybreakers 60fps.mkv
Формат : Matroska
Версия формата : Version 2
Размер файла : 5,84 Гбайт
Продолжительность : 1 ч. 37 м.
Общий поток : 8546 Кбит/сек
Название фильма : Daybreakers (2009) BDRemux 1080p
Дата кодирования : UTC 2014-12-09 14:44:52
Программа кодирования : mkvmerge v6.9.1 ('Blue Panther') 64bit built on Apr 18 2014 18:23:38
Библиотека кодирования : libebml v1.3.0 + libmatroska v1.4.1
Видео
Идентификатор : 1
Формат : AVC
Формат/Информация : Advanced Video Codec
Профиль формата : High@L4.1
Параметр CABAC формата : Да
Параметр ReFrames формата : 6 кадров
Идентификатор кодека : V_MPEG4/ISO/AVC
Продолжительность : 1 ч. 37 м.
Битрейт : 7736 Кбит/сек
Ширина : 1280 пикселей
Высота : 552 пикселя
Соотношение сторон : 2,35:1
Режим частоты кадров : Постоянный
Частота кадров : 59,880 кадров/сек
Частота кадров в оригинале : 59,940 кадров/сек
Цветовое пространство : YUV
Субдискретизация насыщенности : 4:2:0
Битовая глубина : 8 бит
Тип развёртки : Прогрессивная
Бит/(Пиксели*Кадры) : 0.183
Размер потока : 5,29 Гбайт (91%)
Заголовок : Release by mimok
Библиотека кодирования : x264 core 125 r2208 d9d2288
Настройки программы : cabac=1 / ref=6 / deblock=0:0:0 / analyse=0x3:0x133 / me=umh / subme=8 / psy=1 / psy_rd=1.00:0.15 / mixed_ref=1 / me_range=20 / chroma_me=1 / trellis=2 / 8x8dct=1 / cqm=0 / deadzone=21,11 / fast_pskip=0 / chroma_qp_offset=-3 / threads=6 / lookahead_threads=1 / sliced_threads=0 / nr=0 / decimate=0 / interlaced=0 / bluray_compat=0 / constrained_intra=0 / bframes=8 / b_pyramid=2 / b_adapt=2 / b_bias=0 / direct=1 / weightb=1 / open_gop=0 / weightp=2 / keyint=600 / keyint_min=59 / scenecut=40 / intra_refresh=0 / rc=crf / mbtree=0 / crf=17.0 / qcomp=0.63 / qpmin=10 / qpmax=51 / qpstep=4 / ip_ratio=1.40 / pb_ratio=1.30 / aq=1:1.20
Default : Да
Forced : Нет
Аудио
Идентификатор : 2
Формат : AC-3
Формат/Информация : Audio Coding 3
Расширение режима : CM (complete main)
Параметр Endianness формата : Big
Идентификатор кодека : A_AC3
Продолжительность : 1 ч. 37 м.
Вид битрейта : Постоянный
Битрейт : 640 Кбит/сек
Каналы : 6 каналов
Расположение каналов : Front: L C R, Side: L R, LFE
Частота : 48,0 КГц
Битовая глубина : 16 бит
Метод сжатия : С потерями
Размер потока : 448 Мбайт (7%)
Заголовок : Лицензия!
Язык : Russian
Default : Да
Forced : Нет

Скринлист:

Скриншоты:

[Цитировать]



Показать сообщения:    

Текущее время: 08-Дек 09:04

Часовой пояс: UTC + 3


Вы не можете начинать темы
Вы не можете отвечать на сообщения
Вы не можете редактировать свои сообщения
Вы не можете удалять свои сообщения
Вы не можете голосовать в опросах
Вы не можете прикреплять файлы к сообщениям
Вы не можете скачивать файлы

!ВНИМАНИЕ!
Сайт не предоставляет электронные версии произведений, а занимается лишь коллекционированием и каталогизацией ссылок, присылаемых и публикуемых на форуме нашими читателями. Если вы являетесь правообладателем какого-либо представленного материала и не желаете, чтобы ссылка на него находилась в нашем каталоге, свяжитесь с нами, и мы незамедлительно удалим ее. Файлы для обмена на трекере предоставлены пользователями сайта, и администрация не несет ответственности за их содержание. Просьба не заливать файлы, защищенные авторскими правами, а также файлы нелегального содержания!